  0
SECTION
  2
HEADER
  9
$ACADVER
  1
AC1018
  9
$ACADMAINTVER
 70
     0
  9
$DWGCODEPAGE
  3
ANSI_1252
  9
$INSBASE
 10
0.0
 20
0.0
 30
0.0
  9
$EXTMIN
 10
413.0000000000001
 20
2953.0
 30
0.0
  9
$EXTMAX
 10
2135.959135630401
 20
4692.492468963756
 30
0.0
  9
$LIMMIN
 10
0.0
 20
0.0
  9
$LIMMAX
 10
12.0
 20
9.0
  9
$ORTHOMODE
 70
     0
  9
$REGENMODE
 70
     1
  9
$FILLMODE
 70
     1
  9
$QTEXTMODE
 70
     0
  9
$MIRRTEXT
 70
     1
  9
$LTSCALE
 40
1.0
  9
$ATTMODE
 70
     1
  9
$TEXTSIZE
 40
0.2
  9
$TRACEWID
 40
0.05
  9
$TEXTSTYLE
  7
Standard
  9
$CLAYER
  8
0
  9
$CELTYPE
  6
ByLayer
  9
$CECOLOR
 62
   256
  9
$CELTSCALE
 40
1.0
  9
$DISPSILH
 70
     0
  9
$DIMSCALE
 40
1.0
  9
$DIMASZ
 40
0.18
  9
$DIMEXO
 40
0.0625
  9
$DIMDLI
 40
0.38
  9
$DIMRND
 40
0.0
  9
$DIMDLE
 40
0.0
  9
$DIMEXE
 40
0.18
  9
$DIMTP
 40
0.0
  9
$DIMTM
 40
0.0
  9
$DIMTXT
 40
0.18
  9
$DIMCEN
 40
0.09
  9
$DIMTSZ
 40
0.0
  9
$DIMTOL
 70
     0
  9
$DIMLIM
 70
     0
  9
$DIMTIH
 70
     1
  9
$DIMTOH
 70
     1
  9
$DIMSE1
 70
     0
  9
$DIMSE2
 70
     0
  9
$DIMTAD
 70
     0
  9
$DIMZIN
 70
     0
  9
$DIMBLK
  1

  9
$DIMASO
 70
     1
  9
$DIMSHO
 70
     1
  9
$DIMPOST
  1

  9
$DIMAPOST
  1

  9
$DIMALT
 70
     0
  9
$DIMALTD
 70
     2
  9
$DIMALTF
 40
25.4
  9
$DIMLFAC
 40
1.0
  9
$DIMTOFL
 70
     0
  9
$DIMTVP
 40
0.0
  9
$DIMTIX
 70
     0
  9
$DIMSOXD
 70
     0
  9
$DIMSAH
 70
     0
  9
$DIMBLK1
  1

  9
$DIMBLK2
  1

  9
$DIMSTYLE
  2
Standard
  9
$DIMCLRD
 70
     0
  9
$DIMCLRE
 70
     0
  9
$DIMCLRT
 70
     0
  9
$DIMTFAC
 40
1.0
  9
$DIMGAP
 40
0.09
  9
$DIMJUST
 70
     0
  9
$DIMSD1
 70
     0
  9
$DIMSD2
 70
     0
  9
$DIMTOLJ
 70
     1
  9
$DIMTZIN
 70
     0
  9
$DIMALTZ
 70
     0
  9
$DIMALTTZ
 70
     0
  9
$DIMUPT
 70
     0
  9
$DIMDEC
 70
     4
  9
$DIMTDEC
 70
     4
  9
$DIMALTU
 70
     2
  9
$DIMALTTD
 70
     2
  9
$DIMTXSTY
  7
Standard
  9
$DIMAUNIT
 70
     0
  9
$DIMADEC
 70
     0
  9
$DIMALTRND
 40
0.0
  9
$DIMAZIN
 70
     0
  9
$DIMDSEP
 70
    46
  9
$DIMATFIT
 70
     3
  9
$DIMFRAC
 70
     0
  9
$DIMLDRBLK
  1

  9
$DIMLUNIT
 70
     2
  9
$DIMLWD
 70
    -2
  9
$DIMLWE
 70
    -2
  9
$DIMTMOVE
 70
     2
  9
$LUNITS
 70
     2
  9
$LUPREC
 70
     3
  9
$SKETCHINC
 40
0.1
  9
$FILLETRAD
 40
0.5
  9
$AUNITS
 70
     0
  9
$AUPREC
 70
     0
  9
$MENU
  1
.
  9
$ELEVATION
 40
0.0
  9
$PELEVATION
 40
0.0
  9
$THICKNESS
 40
0.0
  9
$LIMCHECK
 70
     0
  9
$CHAMFERA
 40
0.5
  9
$CHAMFERB
 40
0.5
  9
$CHAMFERC
 40
1.0
  9
$CHAMFERD
 40
0.0
  9
$SKPOLY
 70
     0
  9
$TDCREATE
 40
2456139.815292361
  9
$TDUCREATE
 40
2456139.731959028
  9
$TDUPDATE
 40
2456139.815292373
  9
$TDUUPDATE
 40
2456139.731959039
  9
$TDINDWG
 40
0.0000000116
  9
$TDUSRTIMER
 40
0.0000000116
  9
$USRTIMER
 70
     1
  9
$ANGBASE
 50
0.0
  9
$ANGDIR
 70
     0
  9
$PDMODE
 70
     0
  9
$PDSIZE
 40
0.0
  9
$PLINEWID
 40
0.0
  9
$SPLFRAME
 70
     0
  9
$SPLINETYPE
 70
     6
  9
$SPLINESEGS
 70
     8
  9
$HANDSEED
  5
12D
  9
$SURFTAB1
 70
     6
  9
$SURFTAB2
 70
     6
  9
$SURFTYPE
 70
     6
  9
$SURFU
 70
     6
  9
$SURFV
 70
     6
  9
$UCSBASE
  2

  9
$UCSNAME
  2

  9
$UCSORG
 10
0.0
 20
0.0
 30
0.0
  9
$UCSXDIR
 10
1.0
 20
0.0
 30
0.0
  9
$UCSYDIR
 10
0.0
 20
1.0
 30
0.0
  9
$UCSORTHOREF
  2

  9
$UCSORTHOVIEW
 70
     0
  9
$UCSORGTOP
 10
0.0
 20
0.0
 30
0.0
  9
$UCSORGBOTTOM
 10
0.0
 20
0.0
 30
0.0
  9
$UCSORGLEFT
 10
0.0
 20
0.0
 30
0.0
  9
$UCSORGRIGHT
 10
0.0
 20
0.0
 30
0.0
  9
$UCSORGFRONT
 10
0.0
 20
0.0
 30
0.0
  9
$UCSORGBACK
 10
0.0
 20
0.0
 30
0.0
  9
$PUCSBASE
  2

  9
$PUCSNAME
  2

  9
$PUCSORG
 10
0.0
 20
0.0
 30
0.0
  9
$PUCSXDIR
 10
1.0
 20
0.0
 30
0.0
  9
$PUCSYDIR
 10
0.0
 20
1.0
 30
0.0
  9
$PUCSORTHOREF
  2

  9
$PUCSORTHOVIEW
 70
     0
  9
$PUCSORGTOP
 10
0.0
 20
0.0
 30
0.0
  9
$PUCSORGBOTTOM
 10
0.0
 20
0.0
 30
0.0
  9
$PUCSORGLEFT
 10
0.0
 20
0.0
 30
0.0
  9
$PUCSORGRIGHT
 10
0.0
 20
0.0
 30
0.0
  9
$PUCSORGFRONT
 10
0.0
 20
0.0
 30
0.0
  9
$PUCSORGBACK
 10
0.0
 20
0.0
 30
0.0
  9
$USERI1
 70
     0
  9
$USERI2
 70
     0
  9
$USERI3
 70
     0
  9
$USERI4
 70
     0
  9
$USERI5
 70
     0
  9
$USERR1
 40
0.0
  9
$USERR2
 40
0.0
  9
$USERR3
 40
0.0
  9
$USERR4
 40
0.0
  9
$USERR5
 40
0.0
  9
$WORLDVIEW
 70
     1
  9
$SHADEDGE
 70
     3
  9
$SHADEDIF
 70
    70
  9
$TILEMODE
 70
     1
  9
$MAXACTVP
 70
    64
  9
$PINSBASE
 10
0.0
 20
0.0
 30
0.0
  9
$PLIMCHECK
 70
     0
  9
$PEXTMIN
 10
1.000000000000000E+20
 20
1.000000000000000E+20
 30
1.000000000000000E+20
  9
$PEXTMAX
 10
-1.000000000000000E+20
 20
-1.000000000000000E+20
 30
-1.000000000000000E+20
  9
$PLIMMIN
 10
0.0
 20
0.0
  9
$PLIMMAX
 10
12.0
 20
9.0
  9
$UNITMODE
 70
     0
  9
$VISRETAIN
 70
     1
  9
$PLINEGEN
 70
     0
  9
$PSLTSCALE
 70
     1
  9
$TREEDEPTH
 70
  3020
  9
$CMLSTYLE
  2
Standard
  9
$CMLJUST
 70
     0
  9
$CMLSCALE
 40
1.0
  9
$PROXYGRAPHICS
 70
     1
  9
$MEASUREMENT
 70
     0
  9
$CELWEIGHT
370
    -1
  9
$ENDCAPS
280
     0
  9
$JOINSTYLE
280
     0
  9
$LWDISPLAY
290
     0
  9
$INSUNITS
 70
     4
  9
$HYPERLINKBASE
  1

  9
$STYLESHEET
  1

  9
$XEDIT
290
     1
  9
$CEPSNTYPE
380
     0
  9
$PSTYLEMODE
290
     1
  9
$FINGERPRINTGUID
  2
{01C0242E-67CB-4615-A0FD-403954D7D2FB}
  9
$VERSIONGUID
  2
{FAEB1C32-E019-11D5-929B-00C0DF256EC4}
  9
$EXTNAMES
290
     1
  9
$PSVPSCALE
 40
0.0
  9
$OLESTARTUP
290
     0
  9
$SORTENTS
280
   127
  9
$INDEXCTL
280
     0
  9
$HIDETEXT
280
     1
  9
$XCLIPFRAME
290
     0
  9
$HALOGAP
280
     0
  9
$OBSCOLOR
 70
   257
  9
$OBSLTYPE
280
     0
  9
$INTERSECTIONDISPLAY
280
     0
  9
$INTERSECTIONCOLOR
 70
   257
  9
$DIMASSOC
280
     2
  9
$PROJECTNAME
  1

  0
ENDSEC
  0
SECTION
  2
CLASSES
  0
CLASS
  1
ACDBDICTIONARYWDFLT
  2
AcDbDictionaryWithDefault
  3
ObjectDBX Classes
 90
        0
 91
        4
280
     0
281
     0
  0
CLASS
  1
VISUALSTYLE
  2
AcDbVisualStyle
  3
ObjectDBX Classes
 90
     4095
 91
        4
280
     0
281
     0
  0
CLASS
  1
SCALE
  2
AcDbScale
  3
ObjectDBX Classes
 90
     1153
 91
        4
280
     0
281
     0
  0
CLASS
  1
DICTIONARYVAR
  2
AcDbDictionaryVar
  3
ObjectDBX Classes
 90
        0
 91
        4
280
     0
281
     0
  0
ENDSEC
  0
SECTION
  2
TABLES
  0
TABLE
  2
VPORT
  5
8
330
0
100
AcDbSymbolTable
 70
     1
  0
VPORT
  5
29
330
8
100
AcDbSymbolTableRecord
100
AcDbViewportTableRecord
  2
*Active
 70
     0
 10
0.0
 20
0.0
 11
1.0
 21
1.0
 12
1274.4795678152
 22
3822.746234481878
 13
0.0
 23
0.0
 14
0.5
 24
0.5
 15
0.5
 25
0.5
 16
0.0
 26
0.0
 36
1.0
 17
0.0
 27
0.0
 37
0.0
 40
1774.282318343031
 41
0.9904953119209513
 42
50.0
 43
0.0
 44
0.0
 50
0.0
 51
0.0
 71
     0
 72
   100
 73
     1
 74
     3
 75
     0
 76
     0
 77
     0
 78
     0
281
     0
 65
     1
110
0.0
120
0.0
130
0.0
111
1.0
121
0.0
131
0.0
112
0.0
122
1.0
132
0.0
 79
     0
146
0.0
  0
ENDTAB
  0
TABLE
  2
LTYPE
  5
5
330
0
100
AcDbSymbolTable
 70
     1
  0
LTYPE
  5
14
330
5
100
AcDbSymbolTableRecord
100
AcDbLinetypeTableRecord
  2
ByBlock
 70
     0
  3

 72
    65
 73
     0
 40
0.0
  0
LTYPE
  5
15
330
5
100
AcDbSymbolTableRecord
100
AcDbLinetypeTableRecord
  2
ByLayer
 70
     0
  3

 72
    65
 73
     0
 40
0.0
  0
LTYPE
  5
16
330
5
100
AcDbSymbolTableRecord
100
AcDbLinetypeTableRecord
  2
Continuous
 70
     0
  3
Solid line
 72
    65
 73
     0
 40
0.0
  0
ENDTAB
  0
TABLE
  2
LAYER
  5
2
330
0
100
AcDbSymbolTable
 70
     4
  0
LAYER
  5
10
330
2
100
AcDbSymbolTableRecord
100
AcDbLayerTableRecord
  2
0
 70
     0
 62
     7
  6
Continuous
370
    -3
390
F
  0
LAYER
  5
3B
330
2
100
AcDbSymbolTableRecord
100
AcDbLayerTableRecord
  2
DESSIN2D__ LIGNES VISIBLES
 70
     0
 62
     7
  6
Continuous
370
    -3
390
F
  0
LAYER
  5
95
330
2
100
AcDbSymbolTableRecord
100
AcDbLayerTableRecord
  2
D_FAUT
 70
     0
 62
     7
  6
Continuous
370
    -3
390
F
  0
LAYER
  5
BB
330
2
100
AcDbSymbolTableRecord
100
AcDbLayerTableRecord
  2
Defpoints
 70
     0
 62
     7
  6
Continuous
290
     0
370
    -3
390
F
  0
ENDTAB
  0
TABLE
  2
STYLE
  5
3
330
0
100
AcDbSymbolTable
 70
     2
  0
STYLE
  5
11
330
3
100
AcDbSymbolTableRecord
100
AcDbTextStyleTableRecord
  2
Standard
 70
     0
 40
0.0
 41
1.0
 50
0.0
 71
     0
 42
0.2
  3
txt
  4

  0
STYLE
  5
B9
330
3
100
AcDbSymbolTableRecord
100
AcDbTextStyleTableRecord
  2
ARIAL
 70
     0
 40
0.0
 41
1.0
 50
0.0
 71
     0
 42
0.0
  3

  4

1001
ACAD
1000
Arial
1071
      256
  0
ENDTAB
  0
TABLE
  2
VIEW
  5
6
330
0
100
AcDbSymbolTable
 70
     0
  0
ENDTAB
  0
TABLE
  2
UCS
  5
7
330
0
100
AcDbSymbolTable
 70
     0
  0
ENDTAB
  0
TABLE
  2
APPID
  5
9
330
0
100
AcDbSymbolTable
 70
     1
  0
APPID
  5
12
330
9
100
AcDbSymbolTableRecord
100
AcDbRegAppTableRecord
  2
ACAD
 70
     0
  0
ENDTAB
  0
TABLE
  2
DIMSTYLE
  5
A
330
0
100
AcDbSymbolTable
 70
     2
100
AcDbDimStyleTable
  0
DIMSTYLE
105
27
330
A
100
AcDbSymbolTableRecord
100
AcDbDimStyleTableRecord
  2
Standard
 70
     0
340
11
  0
DIMSTYLE
105
BA
102
{ACAD_REACTORS
330
96
330
C8
330
D5
102
}
330
A
100
AcDbSymbolTableRecord
100
AcDbDimStyleTableRecord
  2
STYLE DE COTE 02
 70
     0
 41
10.0
 42
4.0
 44
0.5
 73
     0
 77
     1
 78
     1
140
10.0
141
0.5
172
     1
174
     1
271
     0
284
     1
340
B9
  0
ENDTAB
  0
TABLE
  2
BLOCK_RECORD
  5
1
330
0
100
AcDbSymbolTable
 70
     4
  0
BLOCK_RECORD
  5
1F
330
1
100
AcDbSymbolTableRecord
100
AcDbBlockTableRecord
  2
*Model_Space
340
22
  0
BLOCK_RECORD
  5
1B
330
1
100
AcDbSymbolTableRecord
100
AcDbBlockTableRecord
  2
*Paper_Space
340
1E
  0
BLOCK_RECORD
  5
23
330
1
100
AcDbSymbolTableRecord
100
AcDbBlockTableRecord
  2
*Paper_Space0
340
26
  0
BLOCK_RECORD
  5
BC
330
1
100
AcDbSymbolTableRecord
100
AcDbBlockTableRecord
  2
*D1
340
0
  0
BLOCK_RECORD
  5
C9
330
1
100
AcDbSymbolTableRecord
100
AcDbBlockTableRecord
  2
*D2
340
0
  0
BLOCK_RECORD
  5
D6
330
1
100
AcDbSymbolTableRecord
100
AcDbBlockTableRecord
  2
*D3
340
0
  0
ENDTAB
  0
ENDSEC
  0
SECTION
  2
BLOCKS
  0
BLOCK
  5
20
330
1F
100
AcDbEntity
  8
0
100
AcDbBlockBegin
  2
*Model_Space
 70
     0
 10
0.0
 20
0.0
 30
0.0
  3
*Model_Space
  1

  0
ENDBLK
  5
21
330
1F
100
AcDbEntity
  8
0
100
AcDbBlockEnd
  0
BLOCK
  5
1C
330
1B
100
AcDbEntity
 67
     1
  8
0
100
AcDbBlockBegin
  2
*Paper_Space
 70
     0
 10
0.0
 20
0.0
 30
0.0
  3
*Paper_Space
  1

  0
ENDBLK
  5
1D
330
1B
100
AcDbEntity
 67
     1
  8
0
100
AcDbBlockEnd
  0
BLOCK
  5
24
330
23
100
AcDbEntity
  8
0
100
AcDbBlockBegin
  2
*Paper_Space0
 70
     0
 10
0.0
 20
0.0
 30
0.0
  3
*Paper_Space0
  1

  0
ENDBLK
  5
25
330
23
100
AcDbEntity
  8
0
100
AcDbBlockEnd
  0
BLOCK
  5
C6
330
BC
100
AcDbEntity
  8
0
100
AcDbBlockBegin
  2
*D1
 70
     1
 10
0.0
 20
0.0
 30
0.0
  3
*D1
  1

  0
LINE
  5
BD
330
BC
100
AcDbEntity
  8
D_FAUT
 62
     0
370
    -2
100
AcDbLine
 10
1605.59999999971
 20
4333.192468963775
 30
0.0
 11
1605.59999999971
 21
4289.692468963775
 31
0.0
  0
LINE
  5
BE
330
BC
100
AcDbEntity
  8
D_FAUT
 62
     0
370
    -2
100
AcDbLine
 10
413.2000000000703
 20
4333.192468963775
 30
0.0
 11
413.2000000000703
 21
4289.692468963775
 31
0.0
  0
LINE
  5
BF
330
BC
100
AcDbEntity
  8
D_FAUT
 62
     0
370
    -2
100
AcDbLine
 10
1595.59999999971
 20
4290.192468963775
 30
0.0
 11
423.2000000000703
 21
4290.192468963775
 31
0.0
  0
SOLID
  5
C0
330
BC
100
AcDbEntity
  8
D_FAUT
 62
     0
100
AcDbTrace
 10
1595.59999999971
 20
4288.525802297108
 30
0.0
 11
1595.59999999971
 21
4291.859135630442
 31
0.0
 12
1605.59999999971
 22
4290.192468963775
 32
0.0
 13
1605.59999999971
 23
4290.192468963775
 33
0.0
  0
SOLID
  5
C1
330
BC
100
AcDbEntity
  8
D_FAUT
 62
     0
100
AcDbTrace
 10
423.2000000000703
 20
4291.859135630442
 30
0.0
 11
423.2000000000703
 21
4288.525802297108
 31
0.0
 12
413.2000000000703
 22
4290.192468963775
 32
0.0
 13
413.2000000000703
 23
4290.192468963775
 33
0.0
  0
MTEXT
  5
C2
330
BC
100
AcDbEntity
  8
D_FAUT
 62
     0
100
AcDbMText
 10
1009.39999999989
 20
4295.387468963775
 30
0.0
 40
10.0
 41
0.0
 71
     5
 72
     1
  1
\A1;1192
  7
ARIAL
 73
     1
 44
1.0
  0
POINT
  5
C3
330
BC
100
AcDbEntity
  8
Defpoints
 62
     0
100
AcDbPoint
 10
1605.59999999971
 20
4337.192468963775
 30
0.0
  0
POINT
  5
C4
330
BC
100
AcDbEntity
  8
Defpoints
 62
     0
100
AcDbPoint
 10
413.2000000000703
 20
4337.192468963775
 30
0.0
  0
POINT
  5
C5
330
BC
100
AcDbEntity
  8
Defpoints
 62
     0
100
AcDbPoint
 10
413.2000000000703
 20
4290.192468963775
 30
0.0
  0
ENDBLK
  5
C7
330
BC
100
AcDbEntity
  8
0
100
AcDbBlockEnd
  0
BLOCK
  5
D3
330
C9
100
AcDbEntity
  8
0
100
AcDbBlockBegin
  2
*D2
 70
     1
 10
0.0
 20
0.0
 30
0.0
  3
*D2
  1

  0
LINE
  5
CA
330
C9
100
AcDbEntity
  8
D_FAUT
 62
     0
370
    -2
100
AcDbLine
 10
1930.192468963774
 20
4333.192468963775
 30
0.0
 11
1930.192468963774
 21
4289.692468963775
 31
0.0
  0
LINE
  5
CB
330
C9
100
AcDbEntity
  8
D_FAUT
 62
     0
370
    -2
100
AcDbLine
 10
2090.292468963734
 20
4333.192468963775
 30
0.0
 11
2090.292468963734
 21
4289.692468963775
 31
0.0
  0
LINE
  5
CC
330
C9
100
AcDbEntity
  8
D_FAUT
 62
     0
370
    -2
100
AcDbLine
 10
1940.192468963774
 20
4290.192468963775
 30
0.0
 11
2080.292468963734
 21
4290.192468963775
 31
0.0
  0
SOLID
  5
CD
330
C9
100
AcDbEntity
  8
D_FAUT
 62
     0
100
AcDbTrace
 10
1940.192468963774
 20
4291.859135630442
 30
0.0
 11
1940.192468963774
 21
4288.525802297108
 31
0.0
 12
1930.192468963774
 22
4290.192468963775
 32
0.0
 13
1930.192468963774
 23
4290.192468963775
 33
0.0
  0
SOLID
  5
CE
330
C9
100
AcDbEntity
  8
D_FAUT
 62
     0
100
AcDbTrace
 10
2080.292468963734
 20
4288.525802297108
 30
0.0
 11
2080.292468963734
 21
4291.859135630442
 31
0.0
 12
2090.292468963734
 22
4290.192468963775
 32
0.0
 13
2090.292468963734
 23
4290.192468963775
 33
0.0
  0
MTEXT
  5
CF
330
C9
100
AcDbEntity
  8
D_FAUT
 62
     0
100
AcDbMText
 10
2010.242468963754
 20
4295.387468963775
 30
0.0
 40
10.0
 41
0.0
 71
     5
 72
     1
  1
\A1;160
  7
ARIAL
 73
     1
 44
1.0
  0
POINT
  5
D0
330
C9
100
AcDbEntity
  8
Defpoints
 62
     0
100
AcDbPoint
 10
1930.192468963774
 20
4337.192468963775
 30
0.0
  0
POINT
  5
D1
330
C9
100
AcDbEntity
  8
Defpoints
 62
     0
100
AcDbPoint
 10
2090.292468963734
 20
4337.192468963775
 30
0.0
  0
POINT
  5
D2
330
C9
100
AcDbEntity
  8
Defpoints
 62
     0
100
AcDbPoint
 10
2090.292468963734
 20
4290.192468963775
 30
0.0
  0
ENDBLK
  5
D4
330
C9
100
AcDbEntity
  8
0
100
AcDbBlockEnd
  0
BLOCK
  5
E0
330
D6
100
AcDbEntity
  8
0
100
AcDbBlockBegin
  2
*D3
 70
     1
 10
0.0
 20
0.0
 30
0.0
  3
*D3
  1

  0
LINE
  5
D7
330
D6
100
AcDbEntity
  8
D_FAUT
 62
     0
370
    -2
100
AcDbLine
 10
2094.292468963734
 20
4337.192468963775
 30
0.0
 11
2134.792468963734
 21
4337.192468963775
 31
0.0
  0
LINE
  5
D8
330
D6
100
AcDbEntity
  8
D_FAUT
 62
     0
370
    -2
100
AcDbLine
 10
2094.242468963728
 20
4376.992468963756
 30
0.0
 11
2134.792468963734
 21
4376.992468963756
 31
0.0
  0
LINE
  5
D9
330
D6
100
AcDbEntity
  8
D_FAUT
 62
     0
370
    -2
100
AcDbLine
 10
2134.292468963734
 20
4347.192468963775
 30
0.0
 11
2134.292468963734
 21
4366.992468963756
 31
0.0
  0
SOLID
  5
DA
330
D6
100
AcDbEntity
  8
D_FAUT
 62
     0
100
AcDbTrace
 10
2132.625802297068
 20
4347.192468963775
 30
0.0
 11
2135.959135630401
 21
4347.192468963775
 31
0.0
 12
2134.292468963734
 22
4337.192468963775
 32
0.0
 13
2134.292468963734
 23
4337.192468963775
 33
0.0
  0
SOLID
  5
DB
330
D6
100
AcDbEntity
  8
D_FAUT
 62
     0
100
AcDbTrace
 10
2135.959135630401
 20
4366.992468963756
 30
0.0
 11
2132.625802297068
 21
4366.992468963756
 31
0.0
 12
2134.292468963734
 22
4376.992468963756
 32
0.0
 13
2134.292468963734
 23
4376.992468963756
 33
0.0
  0
MTEXT
  5
DC
330
D6
100
AcDbEntity
  8
D_FAUT
 62
     0
100
AcDbMText
 10
2129.097468963735
 20
4357.092468963765
 30
0.0
 40
10.0
 41
0.0
 71
     5
 72
     1
  1
\A1;40
  7
ARIAL
 11
0.0
 21
1.0
 31
0.0
 73
     1
 44
1.0
  0
POINT
  5
DD
330
D6
100
AcDbEntity
  8
Defpoints
 62
     0
100
AcDbPoint
 10
2090.292468963734
 20
4337.192468963775
 30
0.0
  0
POINT
  5
DE
330
D6
100
AcDbEntity
  8
Defpoints
 62
     0
100
AcDbPoint
 10
2090.242468963728
 20
4376.992468963756
 30
0.0
  0
POINT
  5
DF
330
D6
100
AcDbEntity
  8
Defpoints
 62
     0
100
AcDbPoint
 10
2134.292468963734
 20
4376.992468963756
 30
0.0
  0
ENDBLK
  5
E1
330
D6
100
AcDbEntity
  8
0
100
AcDbBlockEnd
  0
ENDSEC
  0
SECTION
  2
ENTITIES
  0
CIRCLE
  5
3C
330
1F
100
AcDbEntity
  8
DESSIN2D__ LIGNES VISIBLES
100
AcDbCircle
 10
2010.242468963746
 20
4095.749999999407
 30
0.0
 40
42.50000000000045
  0
CIRCLE
  5
3D
330
1F
100
AcDbEntity
  8
DESSIN2D__ LIGNES VISIBLES
100
AcDbCircle
 10
2010.242468963755
 20
3001.899999999932
 30
0.0
 40
5.999999999997726
  0
CIRCLE
  5
3E
330
1F
100
AcDbEntity
  8
DESSIN2D__ LIGNES VISIBLES
100
AcDbCircle
 10
2010.242468963746
 20
4095.749999999407
 30
0.0
 40
50.17455064928345
  0
LINE
  5
3F
330
1F
100
AcDbEntity
  8
DESSIN2D__ LIGNES VISIBLES
100
AcDbLine
 10
1978.007658078093
 20
4134.199999999713
 30
0.0
 11
1941.642468963771
 21
4134.199999999713
 31
0.0
  0
LINE
  5
40
330
1F
100
AcDbEntity
  8
DESSIN2D__ LIGNES VISIBLES
100
AcDbLine
 10
2078.842468963731
 20
2964.399999999997
 30
0.0
 11
1941.642468963765
 21
2964.399999999999
 31
0.0
  0
POLYLINE
  5
41
330
1F
100
AcDbEntity
  8
DESSIN2D__ LIGNES VISIBLES
100
AcDb2dPolyline
 66
     1
 10
0.0
 20
0.0
 30
0.0
  0
VERTEX
  5
42
330
41
100
AcDbEntity
  8
DESSIN2D__ LIGNES VISIBLES
100
AcDbVertex
100
AcDb2dVertex
 10
1930.242468963758
 20
2953.000000000002
 30
0.0
  0
VERTEX
  5
43
330
41
100
AcDbEntity
  8
DESSIN2D__ LIGNES VISIBLES
100
AcDbVertex
100
AcDb2dVertex
 10
1930.242468963772
 20
4145.59999999971
 30
0.0
  0
VERTEX
  5
44
330
41
100
AcDbEntity
  8
DESSIN2D__ LIGNES VISIBLES
100
AcDbVertex
100
AcDb2dVertex
 10
1941.642468963769
 20
4134.199999999713
 30
0.0
  0
VERTEX
  5
45
330
41
100
AcDbEntity
  8
DESSIN2D__ LIGNES VISIBLES
100
AcDbVertex
100
AcDb2dVertex
 10
1941.642468963755
 20
2964.399999999999
 30
0.0
  0
VERTEX
  5
46
330
41
100
AcDbEntity
  8
DESSIN2D__ LIGNES VISIBLES
100
AcDbVertex
100
AcDb2dVertex
 10
1930.242468963758
 20
2953.000000000002
 30
0.0
  0
SEQEND
  5
47
330
41
100
AcDbEntity
  8
DESSIN2D__ LIGNES VISIBLES
  0
POLYLINE
  5
48
330
1F
100
AcDbEntity
  8
DESSIN2D__ LIGNES VISIBLES
100
AcDb2dPolyline
 66
     1
 10
0.0
 20
0.0
 30
0.0
  0
VERTEX
  5
49
330
48
100
AcDbEntity
  8
DESSIN2D__ LIGNES VISIBLES
100
AcDbVertex
100
AcDb2dVertex
 10
1930.242468963758
 20
2953.200000000071
 30
0.0
  0
VERTEX
  5
4A
330
48
100
AcDbEntity
  8
DESSIN2D__ LIGNES VISIBLES
100
AcDbVertex
100
AcDb2dVertex
 10
1930.192468963774
 20
2953.200000000071
 30
0.0
  0
VERTEX
  5
4B
330
48
100
AcDbEntity
  8
DESSIN2D__ LIGNES VISIBLES
100
AcDbVertex
100
AcDb2dVertex
 10
1930.192468963774
 20
4145.599999999711
 30
0.0
  0
VERTEX
  5
4C
330
48
100
AcDbEntity
  8
DESSIN2D__ LIGNES VISIBLES
100
AcDbVertex
100
AcDb2dVertex
 10
2004.54483487233
 20
4145.599999999711
 30
0.0
  0
SEQEND
  5
4D
330
48
100
AcDbEntity
  8
DESSIN2D__ LIGNES VISIBLES
  0
POLYLINE
  5
4E
330
1F
100
AcDbEntity
  8
DESSIN2D__ LIGNES VISIBLES
100
AcDb2dPolyline
 66
     1
 10
0.0
 20
0.0
 30
0.0
  0
VERTEX
  5
4F
330
4E
100
AcDbEntity
  8
DESSIN2D__ LIGNES VISIBLES
100
AcDbVertex
100
AcDb2dVertex
 10
2087.242468963736
 20
4142.59999999971
 30
0.0
  0
VERTEX
  5
50
330
4E
100
AcDbEntity
  8
DESSIN2D__ LIGNES VISIBLES
100
AcDbVertex
100
AcDb2dVertex
 10
2078.842468963738
 20
4134.199999999712
 30
0.0
  0
VERTEX
  5
51
330
4E
100
AcDbEntity
  8
DESSIN2D__ LIGNES VISIBLES
100
AcDbVertex
100
AcDb2dVertex
 10
2078.842468963738
 20
2964.399999999998
 30
0.0
  0
VERTEX
  5
52
330
4E
100
AcDbEntity
  8
DESSIN2D__ LIGNES VISIBLES
100
AcDbVertex
100
AcDb2dVertex
 10
2087.242468963736
 20
2956.0
 30
0.0
  0
VERTEX
  5
53
330
4E
100
AcDbEntity
  8
DESSIN2D__ LIGNES VISIBLES
100
AcDbVertex
100
AcDb2dVertex
 10
2090.242468963736
 20
2953.000000000001
 30
0.0
  0
VERTEX
  5
54
330
4E
100
AcDbEntity
  8
DESSIN2D__ LIGNES VISIBLES
100
AcDbVertex
100
AcDb2dVertex
 10
2090.242468963736
 20
4145.599999999709
 30
0.0
  0
VERTEX
  5
55
330
4E
100
AcDbEntity
  8
DESSIN2D__ LIGNES VISIBLES
100
AcDbVertex
100
AcDb2dVertex
 10
2087.242468963736
 20
4142.59999999971
 30
0.0
  0
SEQEND
  5
56
330
4E
100
AcDbEntity
  8
DESSIN2D__ LIGNES VISIBLES
  0
LINE
  5
57
330
1F
100
AcDbEntity
  8
DESSIN2D__ LIGNES VISIBLES
100
AcDbLine
 10
1989.79246896377
 20
2964.399999999999
 30
0.0
 11
1989.79246896377
 21
4049.93206647051
 31
0.0
  0
LINE
  5
58
330
1F
100
AcDbEntity
  8
DESSIN2D__ LIGNES VISIBLES
100
AcDbLine
 10
2078.842468963737
 20
4134.199999999713
 30
0.0
 11
2042.4772798494
 21
4134.199999999713
 31
0.0
  0
POLYLINE
  5
59
330
1F
100
AcDbEntity
  8
DESSIN2D__ LIGNES VISIBLES
100
AcDb2dPolyline
 66
     1
 10
0.0
 20
0.0
 30
0.0
  0
VERTEX
  5
5A
330
59
100
AcDbEntity
  8
DESSIN2D__ LIGNES VISIBLES
100
AcDbVertex
100
AcDb2dVertex
 10
2090.242468963736
 20
2953.200000000071
 30
0.0
  0
VERTEX
  5
5B
330
59
100
AcDbEntity
  8
DESSIN2D__ LIGNES VISIBLES
100
AcDbVertex
100
AcDb2dVertex
 10
2090.292468963734
 20
2953.200000000071
 30
0.0
  0
VERTEX
  5
5C
330
59
100
AcDbEntity
  8
DESSIN2D__ LIGNES VISIBLES
100
AcDbVertex
100
AcDb2dVertex
 10
2090.292468963734
 20
4145.599999999711
 30
0.0
  0
VERTEX
  5
5D
330
59
100
AcDbEntity
  8
DESSIN2D__ LIGNES VISIBLES
100
AcDbVertex
100
AcDb2dVertex
 10
2015.940103055163
 20
4145.599999999711
 30
0.0
  0
SEQEND
  5
5E
330
59
100
AcDbEntity
  8
DESSIN2D__ LIGNES VISIBLES
  0
CIRCLE
  5
5F
330
1F
100
AcDbEntity
  8
DESSIN2D__ LIGNES VISIBLES
100
AcDbCircle
 10
2010.242468963754
 20
3001.89999999993
 30
0.0
 40
3.499999999997499
  0
LINE
  5
60
330
1F
100
AcDbEntity
  8
DESSIN2D__ LIGNES VISIBLES
100
AcDbLine
 10
2030.692468963739
 20
2964.399999999999
 30
0.0
 11
2030.692468963739
 21
4049.932066470517
 31
0.0
  0
LINE
  5
61
330
1F
100
AcDbEntity
  8
DESSIN2D__ LIGNES VISIBLES
100
AcDbLine
 10
1930.242468963767
 20
2953.000000000002
 30
0.0
 11
2090.242468963728
 21
2953.0
 31
0.0
  0
POLYLINE
  5
62
330
1F
100
AcDbEntity
  8
DESSIN2D__ LIGNES VISIBLES
100
AcDb2dPolyline
 66
     1
 10
0.0
 20
0.0
 30
0.0
  0
VERTEX
  5
63
330
62
100
AcDbEntity
  8
DESSIN2D__ LIGNES VISIBLES
100
AcDbVertex
100
AcDb2dVertex
 10
1605.599999999708
 20
4349.692468963769
 30
0.0
  0
VERTEX
  5
64
330
62
100
AcDbEntity
  8
DESSIN2D__ LIGNES VISIBLES
100
AcDbVertex
100
AcDb2dVertex
 10
1605.599999999708
 20
4376.992468963756
 30
0.0
  0
VERTEX
  5
65
330
62
100
AcDbEntity
  8
DESSIN2D__ LIGNES VISIBLES
100
AcDbVertex
100
AcDb2dVertex
 10
413.0000000000002
 20
4376.992468963756
 30
0.0
  0
VERTEX
  5
66
330
62
100
AcDbEntity
  8
DESSIN2D__ LIGNES VISIBLES
100
AcDbVertex
100
AcDb2dVertex
 10
413.0000000000001
 20
4337.192468963775
 30
0.0
  0
VERTEX
  5
67
330
62
100
AcDbEntity
  8
DESSIN2D__ LIGNES VISIBLES
100
AcDbVertex
100
AcDb2dVertex
 10
1605.59999999971
 20
4337.192468963775
 30
0.0
  0
VERTEX
  5
68
330
62
100
AcDbEntity
  8
DESSIN2D__ LIGNES VISIBLES
100
AcDbVertex
100
AcDb2dVertex
 10
1605.59999999971
 20
4349.692468963769
 30
0.0
  0
VERTEX
  5
69
330
62
100
AcDbEntity
  8
DESSIN2D__ LIGNES VISIBLES
100
AcDbVertex
100
AcDb2dVertex
 10
413.2000000000702
 20
4349.692468963769
 30
0.0
  0
SEQEND
  5
6A
330
62
100
AcDbEntity
  8
DESSIN2D__ LIGNES VISIBLES
  0
POLYLINE
  5
6B
330
1F
100
AcDbEntity
  8
DESSIN2D__ LIGNES VISIBLES
100
AcDb2dPolyline
 66
     1
 10
0.0
 20
0.0
 30
0.0
  0
VERTEX
  5
6C
330
6B
100
AcDbEntity
  8
DESSIN2D__ LIGNES VISIBLES
100
AcDbVertex
100
AcDb2dVertex
 10
459.9999999999997
 20
4394.692468963752
 30
0.0
  0
VERTEX
  5
6D
330
6B
100
AcDbEntity
  8
DESSIN2D__ LIGNES VISIBLES
100
AcDbVertex
100
AcDb2dVertex
 10
460.0003728224847
 20
4664.992468963756
 30
0.0
  0
VERTEX
  5
6E
330
6B
100
AcDbEntity
  8
DESSIN2D__ LIGNES VISIBLES
100
AcDbVertex
100
AcDb2dVertex
 10
461.4999999999996
 20
4664.992468963756
 30
0.0
  0
VERTEX
  5
6F
330
6B
100
AcDbEntity
  8
DESSIN2D__ LIGNES VISIBLES
100
AcDbVertex
100
AcDb2dVertex
 10
461.4999999999998
 20
4394.692468963752
 30
0.0
  0
SEQEND
  5
70
330
6B
100
AcDbEntity
  8
DESSIN2D__ LIGNES VISIBLES
  0
POLYLINE
  5
71
330
1F
100
AcDbEntity
  8
DESSIN2D__ LIGNES VISIBLES
100
AcDb2dPolyline
 66
     1
 10
0.0
 20
0.0
 30
0.0
  0
VERTEX
  5
72
330
71
100
AcDbEntity
  8
DESSIN2D__ LIGNES VISIBLES
100
AcDbVertex
100
AcDb2dVertex
 10
464.399999999929
 20
4384.692468963756
 30
0.0
  0
VERTEX
  5
73
330
71
100
AcDbEntity
  8
DESSIN2D__ LIGNES VISIBLES
100
AcDbVertex
100
AcDb2dVertex
 10
464.3999999999291
 20
4379.19246896376
 30
0.0
  0
VERTEX
  5
74
330
71
100
AcDbEntity
  8
DESSIN2D__ LIGNES VISIBLES
100
AcDbVertex
100
AcDb2dVertex
 10
463.899999999929
 20
4378.69246896376
 30
0.0
  0
VERTEX
  5
75
330
71
100
AcDbEntity
  8
DESSIN2D__ LIGNES VISIBLES
100
AcDbVertex
100
AcDb2dVertex
 10
459.8999999999312
 20
4378.69246896376
 30
0.0
  0
VERTEX
  5
76
330
71
100
AcDbEntity
  8
DESSIN2D__ LIGNES VISIBLES
100
AcDbVertex
100
AcDb2dVertex
 10
459.400153975123
 20
4379.192314988568
 30
0.0
  0
VERTEX
  5
77
330
71
100
AcDbEntity
  8
DESSIN2D__ LIGNES VISIBLES
100
AcDbVertex
100
AcDb2dVertex
 10
459.3999999999315
 20
4384.692468963756
 30
0.0
  0
SEQEND
  5
78
330
71
100
AcDbEntity
  8
DESSIN2D__ LIGNES VISIBLES
  0
LINE
  5
79
330
1F
100
AcDbEntity
  8
DESSIN2D__ LIGNES VISIBLES
100
AcDbLine
 10
1551.754469733884
 20
4376.992468963758
 30
0.0
 11
1551.754469733884
 21
4642.592468963756
 31
0.0
  0
LINE
  5
7A
330
1F
100
AcDbEntity
  8
DESSIN2D__ LIGNES VISIBLES
100
AcDbLine
 10
463.4999999999295
 20
4378.692468963759
 30
0.0
 11
463.4999999999295
 21
4376.992468963756
 31
0.0
  0
POLYLINE
  5
7B
330
1F
100
AcDbEntity
  8
DESSIN2D__ LIGNES VISIBLES
100
AcDb2dPolyline
 66
     1
 10
0.0
 20
0.0
 30
0.0
  0
VERTEX
  5
7C
330
7B
100
AcDbEntity
  8
DESSIN2D__ LIGNES VISIBLES
100
AcDbVertex
100
AcDb2dVertex
 10
458.9003695403916
 20
4394.692468963752
 30
0.0
  0
VERTEX
  5
7D
330
7B
100
AcDbEntity
  8
DESSIN2D__ LIGNES VISIBLES
100
AcDbVertex
100
AcDb2dVertex
 10
464.8999999999289
 20
4394.692468963752
 30
0.0
  0
VERTEX
  5
7E
330
7B
100
AcDbEntity
  8
DESSIN2D__ LIGNES VISIBLES
100
AcDbVertex
100
AcDb2dVertex
 10
465.3997844346604
 20
4394.19268452902
 30
0.0
  0
VERTEX
  5
7F
330
7B
100
AcDbEntity
  8
DESSIN2D__ LIGNES VISIBLES
100
AcDbVertex
100
AcDb2dVertex
 10
465.3999999999285
 20
4384.692468963756
 30
0.0
  0
VERTEX
  5
80
330
7B
100
AcDbEntity
  8
DESSIN2D__ LIGNES VISIBLES
100
AcDbVertex
100
AcDb2dVertex
 10
458.4004311304683
 20
4384.692468963756
 30
0.0
  0
VERTEX
  5
81
330
7B
100
AcDbEntity
  8
DESSIN2D__ LIGNES VISIBLES
100
AcDbVertex
100
AcDb2dVertex
 10
458.399999999932
 20
4394.192468963753
 30
0.0
  0
VERTEX
  5
82
330
7B
100
AcDbEntity
  8
DESSIN2D__ LIGNES VISIBLES
100
AcDbVertex
100
AcDb2dVertex
 10
458.9003695403916
 20
4394.692468963752
 30
0.0
  0
SEQEND
  5
83
330
7B
100
AcDbEntity
  8
DESSIN2D__ LIGNES VISIBLES
  0
LINE
  5
84
330
1F
100
AcDbEntity
  8
DESSIN2D__ LIGNES VISIBLES
100
AcDbLine
 10
1559.745530264927
 20
4642.592468963756
 30
0.0
 11
1559.745530264927
 21
4376.992468963758
 31
0.0
  0
POLYLINE
  5
85
330
1F
100
AcDbEntity
  8
DESSIN2D__ LIGNES VISIBLES
100
AcDb2dPolyline
 66
     1
 10
0.0
 20
0.0
 30
0.0
  0
VERTEX
  5
86
330
85
100
AcDbEntity
  8
DESSIN2D__ LIGNES VISIBLES
100
AcDbVertex
100
AcDb2dVertex
 10
1598.249999999406
 20
4662.492468963756
 30
0.0
  0
VERTEX
  5
87
330
85
100
AcDbEntity
  8
DESSIN2D__ LIGNES VISIBLES
100
AcDbVertex
100
AcDb2dVertex
 10
1598.249999999406
 20
4692.492468963756
 30
0.0
  0
VERTEX
  5
88
330
85
100
AcDbEntity
  8
DESSIN2D__ LIGNES VISIBLES
100
AcDbVertex
100
AcDb2dVertex
 10
1513.249999999406
 20
4692.492468963756
 30
0.0
  0
VERTEX
  5
89
330
85
100
AcDbEntity
  8
DESSIN2D__ LIGNES VISIBLES
100
AcDbVertex
100
AcDb2dVertex
 10
1513.249999999406
 20
4662.492468963756
 30
0.0
  0
SEQEND
  5
8A
330
85
100
AcDbEntity
  8
DESSIN2D__ LIGNES VISIBLES
  0
POLYLINE
  5
8B
330
1F
100
AcDbEntity
  8
DESSIN2D__ LIGNES VISIBLES
100
AcDb2dPolyline
 66
     1
 10
0.0
 20
0.0
 30
0.0
  0
VERTEX
  5
8C
330
8B
100
AcDbEntity
  8
DESSIN2D__ LIGNES VISIBLES
100
AcDbVertex
100
AcDb2dVertex
 10
1605.581482464626
 20
4642.838105862147
 30
0.0
 42
-0.4091091523462395
  0
VERTEX
  5
8D
330
8B
100
AcDbEntity
  8
DESSIN2D__ LIGNES VISIBLES
100
AcDbVertex
100
AcDb2dVertex
 10
1605.331520540838
 20
4642.592468963756
 30
0.0
  0
VERTEX
  5
8E
330
8B
100
AcDbEntity
  8
DESSIN2D__ LIGNES VISIBLES
100
AcDbVertex
100
AcDb2dVertex
 10
1506.168479455399
 20
4642.592468963756
 30
0.0
 42
-0.4091050923363995
  0
VERTEX
  5
8F
330
8B
100
AcDbEntity
  8
DESSIN2D__ LIGNES VISIBLES
100
AcDbVertex
100
AcDb2dVertex
 10
1505.918517534185
 20
4642.838105862147
 30
0.0
  0
VERTEX
  5
90
330
8B
100
AcDbEntity
  8
DESSIN2D__ LIGNES VISIBLES
100
AcDbVertex
100
AcDb2dVertex
 10
1505.575449350123
 20
4662.492468963756
 30
0.0
  0
VERTEX
  5
91
330
8B
100
AcDbEntity
  8
DESSIN2D__ LIGNES VISIBLES
100
AcDbVertex
100
AcDb2dVertex
 10
1605.924550648688
 20
4662.492468963756
 30
0.0
  0
VERTEX
  5
92
330
8B
100
AcDbEntity
  8
DESSIN2D__ LIGNES VISIBLES
100
AcDbVertex
100
AcDb2dVertex
 10
1605.581482464626
 20
4642.838105862147
 30
0.0
  0
SEQEND
  5
93
330
8B
100
AcDbEntity
  8
DESSIN2D__ LIGNES VISIBLES
  0
LINE
  5
94
330
1F
100
AcDbEntity
  8
DESSIN2D__ LIGNES VISIBLES
100
AcDbLine
 10
459.9999999999997
 20
4376.992468963756
 30
0.0
 11
459.9999999999997
 21
4378.69246896376
 31
0.0
  0
DIMENSION
  5
96
330
1F
100
AcDbEntity
  8
D_FAUT
100
AcDbDimension
  2
*D1
 10
413.2000000000703
 20
4290.192468963775
 30
0.0
 11
1009.39999999989
 21
4295.387468963775
 31
0.0
 70
    32
  1
<>
 71
     5
 42
1192.39999999964
  3
STYLE DE COTE 02
100
AcDbAlignedDimension
 13
1605.59999999971
 23
4337.192468963775
 33
0.0
 14
413.2000000000703
 24
4337.192468963775
 34
0.0
100
AcDbRotatedDimension
1001
ACAD
1000
DSTYLE
1002
{
1070
   279
1070
     1
1002
}
  0
DIMENSION
  5
C8
330
1F
100
AcDbEntity
  8
D_FAUT
100
AcDbDimension
  2
*D2
 10
2090.292468963734
 20
4290.192468963775
 30
0.0
 11
2010.242468963754
 21
4295.387468963775
 31
0.0
 70
    32
  1
<>
 71
     5
 42
160.0999999999603
  3
STYLE DE COTE 02
100
AcDbAlignedDimension
 13
1930.192468963774
 23
4337.192468963775
 33
0.0
 14
2090.292468963734
 24
4337.192468963775
 34
0.0
100
AcDbRotatedDimension
1001
ACAD
1000
DSTYLE
1002
{
1070
   279
1070
     1
1002
}
  0
DIMENSION
  5
D5
330
1F
100
AcDbEntity
  8
D_FAUT
100
AcDbDimension
  2
*D3
 10
2134.292468963734
 20
4376.992468963756
 30
0.0
 11
2129.097468963735
 21
4357.092468963765
 31
0.0
 70
    32
  1
<>
 71
     5
 42
39.79999999998017
  3
STYLE DE COTE 02
100
AcDbAlignedDimension
 13
2090.292468963734
 23
4337.192468963775
 33
0.0
 14
2090.242468963728
 24
4376.992468963756
 34
0.0
 50
90.0
100
AcDbRotatedDimension
1001
ACAD
1000
DSTYLE
1002
{
1070
   279
1070
     1
1002
}
  0
POLYLINE
  5
E2
330
1F
100
AcDbEntity
  8
DESSIN2D__ LIGNES VISIBLES
100
AcDb2dPolyline
 66
     1
 10
0.0
 20
0.0
 30
0.0
  0
VERTEX
  5
E3
330
E2
100
AcDbEntity
  8
DESSIN2D__ LIGNES VISIBLES
100
AcDbVertex
100
AcDb2dVertex
 10
2052.742468963747
 20
4662.492468963756
 30
0.0
  0
VERTEX
  5
E4
330
E2
100
AcDbEntity
  8
DESSIN2D__ LIGNES VISIBLES
100
AcDbVertex
100
AcDb2dVertex
 10
2052.742468963747
 20
4692.492468963756
 30
0.0
  0
VERTEX
  5
E5
330
E2
100
AcDbEntity
  8
DESSIN2D__ LIGNES VISIBLES
100
AcDbVertex
100
AcDb2dVertex
 10
1967.742468963747
 20
4692.492468963756
 30
0.0
  0
VERTEX
  5
E6
330
E2
100
AcDbEntity
  8
DESSIN2D__ LIGNES VISIBLES
100
AcDbVertex
100
AcDb2dVertex
 10
1967.742468963747
 20
4662.492468963756
 30
0.0
  0
SEQEND
  5
E7
330
E2
100
AcDbEntity
  8
DESSIN2D__ LIGNES VISIBLES
  0
POLYLINE
  5
E8
330
1F
100
AcDbEntity
  8
DESSIN2D__ LIGNES VISIBLES
100
AcDb2dPolyline
 66
     1
 10
0.0
 20
0.0
 30
0.0
  0
VERTEX
  5
E9
330
E8
100
AcDbEntity
  8
DESSIN2D__ LIGNES VISIBLES
100
AcDbVertex
100
AcDb2dVertex
 10
1989.79246896377
 20
4337.192468963775
 30
0.0
  0
VERTEX
  5
EA
330
E8
100
AcDbEntity
  8
DESSIN2D__ LIGNES VISIBLES
100
AcDbVertex
100
AcDb2dVertex
 10
1930.192468963774
 20
4337.192468963775
 30
0.0
  0
VERTEX
  5
EB
330
E8
100
AcDbEntity
  8
DESSIN2D__ LIGNES VISIBLES
100
AcDbVertex
100
AcDb2dVertex
 10
1930.192468963774
 20
4349.692468963769
 30
0.0
  0
VERTEX
  5
EC
330
E8
100
AcDbEntity
  8
DESSIN2D__ LIGNES VISIBLES
100
AcDbVertex
100
AcDb2dVertex
 10
1930.242468963772
 20
4349.692468963769
 30
0.0
  0
SEQEND
  5
ED
330
E8
100
AcDbEntity
  8
DESSIN2D__ LIGNES VISIBLES
  0
POLYLINE
  5
EE
330
1F
100
AcDbEntity
  8
DESSIN2D__ LIGNES VISIBLES
100
AcDb2dPolyline
 66
     1
 10
0.0
 20
0.0
 30
0.0
  0
VERTEX
  5
EF
330
EE
100
AcDbEntity
  8
DESSIN2D__ LIGNES VISIBLES
100
AcDbVertex
100
AcDb2dVertex
 10
2030.692468963739
 20
4337.192468963775
 30
0.0
  0
VERTEX
  5
F0
330
EE
100
AcDbEntity
  8
DESSIN2D__ LIGNES VISIBLES
100
AcDbVertex
100
AcDb2dVertex
 10
2090.292468963734
 20
4337.192468963775
 30
0.0
  0
VERTEX
  5
F1
330
EE
100
AcDbEntity
  8
DESSIN2D__ LIGNES VISIBLES
100
AcDbVertex
100
AcDb2dVertex
 10
2090.292468963734
 20
4349.692468963769
 30
0.0
  0
VERTEX
  5
F2
330
EE
100
AcDbEntity
  8
DESSIN2D__ LIGNES VISIBLES
100
AcDbVertex
100
AcDb2dVertex
 10
2090.242468963736
 20
4349.692468963769
 30
0.0
  0
SEQEND
  5
F3
330
EE
100
AcDbEntity
  8
DESSIN2D__ LIGNES VISIBLES
  0
POLYLINE
  5
F4
330
1F
100
AcDbEntity
  8
D_FAUT
100
AcDb2dPolyline
 66
     1
 10
0.0
 20
0.0
 30
0.0
  0
VERTEX
  5
F5
330
F4
100
AcDbEntity
  8
D_FAUT
100
AcDbVertex
100
AcDb2dVertex
 10
2008.642468963755
 20
4376.992468963756
 30
0.0
  0
VERTEX
  5
F6
330
F4
100
AcDbEntity
  8
D_FAUT
100
AcDbVertex
100
AcDb2dVertex
 10
2008.642468963755
 20
4378.69246896376
 30
0.0
  0
VERTEX
  5
F7
330
F4
100
AcDbEntity
  8
D_FAUT
100
AcDbVertex
100
AcDb2dVertex
 10
2012.242468963753
 20
4378.69246896376
 30
0.0
  0
VERTEX
  5
F8
330
F4
100
AcDbEntity
  8
D_FAUT
100
AcDbVertex
100
AcDb2dVertex
 10
2012.742314988562
 20
4379.192314988568
 30
0.0
  0
VERTEX
  5
F9
330
F4
100
AcDbEntity
  8
D_FAUT
100
AcDbVertex
100
AcDb2dVertex
 10
2012.742468963753
 20
4384.692468963756
 30
0.0
  0
SEQEND
  5
FA
330
F4
100
AcDbEntity
  8
D_FAUT
  0
POLYLINE
  5
FB
330
1F
100
AcDbEntity
  8
D_FAUT
100
AcDb2dPolyline
 66
     1
 10
0.0
 20
0.0
 30
0.0
  0
VERTEX
  5
FC
330
FB
100
AcDbEntity
  8
D_FAUT
100
AcDbVertex
100
AcDb2dVertex
 10
2009.492468951433
 20
4642.592468963756
 30
0.0
  0
VERTEX
  5
FD
330
FB
100
AcDbEntity
  8
D_FAUT
100
AcDbVertex
100
AcDb2dVertex
 10
1960.660948422315
 20
4642.592468963756
 30
0.0
 42
-0.4091108014264629
  0
VERTEX
  5
FE
330
FB
100
AcDbEntity
  8
D_FAUT
100
AcDbVertex
100
AcDb2dVertex
 10
1960.410986498526
 20
4642.838105862147
 30
0.0
  0
VERTEX
  5
FF
330
FB
100
AcDbEntity
  8
D_FAUT
100
AcDbVertex
100
AcDb2dVertex
 10
1960.067918314464
 20
4662.492468963756
 30
0.0
  0
VERTEX
  5
100
330
FB
100
AcDbEntity
  8
D_FAUT
100
AcDbVertex
100
AcDb2dVertex
 10
2060.417019613029
 20
4662.492468963756
 30
0.0
  0
VERTEX
  5
101
330
FB
100
AcDbEntity
  8
D_FAUT
100
AcDbVertex
100
AcDb2dVertex
 10
2060.073951428968
 20
4642.838105862147
 30
0.0
 42
-0.4091071037430957
  0
VERTEX
  5
102
330
FB
100
AcDbEntity
  8
D_FAUT
100
AcDbVertex
100
AcDb2dVertex
 10
2059.823990385526
 20
4642.592468963759
 30
0.0
  0
VERTEX
  5
103
330
FB
100
AcDbEntity
  8
D_FAUT
100
AcDbVertex
100
AcDb2dVertex
 10
2009.492468963748
 20
4642.592468963756
 30
0.0
  0
VERTEX
  5
104
330
FB
100
AcDbEntity
  8
D_FAUT
100
AcDbVertex
100
AcDb2dVertex
 10
2009.492468963748
 20
4394.692468963752
 30
0.0
  0
SEQEND
  5
105
330
FB
100
AcDbEntity
  8
D_FAUT
  0
POLYLINE
  5
106
330
1F
100
AcDbEntity
  8
D_FAUT
100
AcDb2dPolyline
 66
     1
 10
0.0
 20
0.0
 30
0.0
  0
VERTEX
  5
107
330
106
100
AcDbEntity
  8
D_FAUT
100
AcDbVertex
100
AcDb2dVertex
 10
2007.742468963756
 20
4384.692468963756
 30
0.0
  0
VERTEX
  5
108
330
106
100
AcDbEntity
  8
D_FAUT
100
AcDbVertex
100
AcDb2dVertex
 10
2007.742622938947
 20
4379.192314988568
 30
0.0
  0
VERTEX
  5
109
330
106
100
AcDbEntity
  8
D_FAUT
100
AcDbVertex
100
AcDb2dVertex
 10
2008.242468963756
 20
4378.69246896376
 30
0.0
  0
VERTEX
  5
10A
330
106
100
AcDbEntity
  8
D_FAUT
100
AcDbVertex
100
AcDb2dVertex
 10
2008.642468963755
 20
4378.69246896376
 30
0.0
  0
SEQEND
  5
10B
330
106
100
AcDbEntity
  8
D_FAUT
  0
LINE
  5
10C
330
1F
100
AcDbEntity
  8
DESSIN2D__ LIGNES VISIBLES
100
AcDbLine
 10
2010.992468963748
 20
4394.692468963752
 30
0.0
 11
2010.992468963748
 21
4642.592468963756
 31
0.0
  0
SPLINE
  5
10D
330
1F
100
AcDbEntity
  8
DESSIN2D__ LIGNES VISIBLES
100
AcDbSpline
210
0.0
220
0.0
230
1.0
 70
     8
 71
     3
 72
    34
 73
    30
 74
     0
 42
0.0000000001
 43
0.0000000001
 40
0.0
 40
0.0
 40
0.0
 40
0.0
 40
9.418324836836847
 40
19.48085387772364
 40
29.07295002763296
 40
50.46369805144955
 40
61.24265355589505
 40
65.66026558840126
 40
69.96640193579714
 40
84.67168520049199
 40
89.91121179939746
 40
99.72505029178794
 40
117.1775846889593
 40
122.480169229307
 40
127.6141070309514
 40
138.4655291107418
 40
149.3224095595567
 40
174.6892528364147
 40
186.7453053312472
 40
198.7879448613265
 40
203.6057932652409
 40
209.6298752736067
 40
215.6582815093582
 40
222.0220841438786
 40
228.1699094047885
 40
235.0998865100038
 40
242.0374020087946
 40
249.7569683532215
 40
267.2469868410921
 40
267.2469868410921
 40
267.2469868410921
 40
267.2469868410921
 10
2041.204701115621
 20
4642.592468963756
 30
0.0
 10
2041.247407136416
 20
4639.45331886777
 30
0.0
 10
2041.381530017988
 20
4632.960927894987
 30
0.0
 10
2041.712374767851
 20
4623.27539881677
 30
0.0
 10
2042.326135428994
 20
4609.607266964541
 30
0.0
 10
2043.085954570211
 20
4595.707193956156
 30
0.0
 10
2043.589416286752
 20
4583.521542174321
 30
0.0
 10
2043.783781282944
 20
4577.023492811109
 30
0.0
 10
2043.967250334
 20
4569.215938155989
 30
0.0
 10
2044.090163172627
 20
4561.133143681028
 30
0.0
 10
2044.29709226385
 20
4551.215735439215
 30
0.0
 10
2044.605212954748
 20
4540.384759903381
 30
0.0
 10
2045.185550280422
 20
4529.541533332744
 30
0.0
 10
2046.036776598419
 20
4520.283039189522
 30
0.0
 10
2046.832731926395
 20
4513.231716347991
 30
0.0
 10
2048.097324054308
 20
4504.372609383669
 30
0.0
 10
2050.726724397391
 20
4488.90222273331
 30
0.0
 10
2053.78460766657
 20
4473.100607687902
 30
0.0
 10
2056.440781629432
 20
4456.82578184579
 30
0.0
 10
2057.647040894556
 20
4447.260389993056
 30
0.0
 10
2058.318619706831
 20
4439.66098568479
 30
0.0
 10
2058.661499610283
 20
4434.047449837406
 30
0.0
 10
2058.825104053829
 20
4427.909700175127
 30
0.0
 10
2058.742445264902
 20
4421.728853558335
 30
0.0
 10
2058.375850851646
 20
4415.257272278523
 30
0.0
 10
2057.740092238689
 20
4408.614674421814
 30
0.0
 10
2056.796087930337
 20
4401.4802363983
 30
0.0
 10
2055.050029062351
 20
4390.90615579088
 30
0.0
 10
2053.319700720724
 20
4382.680319585334
 30
0.0
 10
2052.041748920631
 20
4376.99246896377
 30
0.0
  0
SPLINE
  5
10E
330
1F
100
AcDbEntity
  8
DESSIN2D__ LIGNES VISIBLES
100
AcDbSpline
210
0.0
220
0.0
230
1.0
 70
     8
 71
     3
 72
    35
 73
    31
 74
     0
 42
0.0000000001
 43
0.0000000001
 40
0.0
 40
0.0
 40
0.0
 40
0.0
 40
17.39363017009805
 40
31.66822094602996
 40
44.51230123531636
 40
47.50416239550572
 40
50.49678866712038
 40
53.60129443235385
 40
56.70673361150674
 40
67.13634844755957
 40
78.79840234748045
 40
91.03510659463167
 40
97.71372365113007
 40
116.4134589432395
 40
127.3111447817705
 40
138.634238220762
 40
143.9591085343338
 40
149.2830531850885
 40
167.2143915461063
 40
176.7169676828013
 40
182.2382216616677
 40
197.4377307927299
 40
201.8368075580814
 40
206.0170934542644
 40
216.8232207529976
 40
222.3451531197597
 40
237.9424492977525
 40
247.3036508242782
 40
257.5656650769988
 40
267.2771327099701
 40
267.2771327099701
 40
267.2771327099701
 40
267.2771327099701
 10
2043.847681075477
 20
4376.992468963756
 30
0.0
 10
2045.1336596883
 20
4382.645759310484
 30
0.0
 10
2047.353357768561
 20
4392.968341683382
 30
0.0
 10
2049.692549973754
 20
4407.627358634456
 30
0.0
 10
2050.573006099526
 20
4417.633089804202
 30
0.0
 10
2050.774617445017
 20
4423.907000327562
 30
0.0
 10
2050.806295855237
 20
4426.936455750994
 30
0.0
 10
2050.773889581302
 20
4430.00407652183
 30
0.0
 10
2050.603628471065
 20
4435.548346546725
 30
0.0
 10
2049.999525745774
 20
4443.929021464055
 30
0.0
 10
2048.587908275764
 20
4455.287381653932
 30
0.0
 10
2046.955087265317
 20
4465.34918040077
 30
0.0
 10
2044.755664854893
 20
4477.693100269402
 30
0.0
 10
2042.507589329835
 20
4489.574691758464
 30
0.0
 10
2040.21933330916
 20
4503.02220252546
 30
0.0
 10
2038.917247808515
 20
4512.112536613912
 30
0.0
 10
2038.094158843433
 20
4519.390645869893
 30
0.0
 10
2037.21951517144
 20
4528.877799948819
 30
0.0
 10
2036.63056780395
 20
4539.784302944186
 30
0.0
 10
2036.314136393222
 20
4550.764402862654
 30
0.0
 10
2036.101431760882
 20
4560.836902781309
 30
0.0
 10
2035.975352091103
 20
4569.209099678884
 30
0.0
 10
2035.786278068397
 20
4577.133299596452
 30
0.0
 10
2035.589269775963
 20
4583.592118099394
 30
0.0
 10
2035.304988387204
 20
4590.422509765136
 30
0.0
 10
2034.790292373087
 20
4601.051799149857
 30
0.0
 10
2034.254877123656
 20
4611.197900363165
 30
0.0
 10
2033.728551795772
 20
4622.92635722812
 30
0.0
 10
2033.393007480694
 20
4632.699024948493
 30
0.0
 10
2033.255715997739
 20
4639.355607033403
 30
0.0
 10
2033.212249501254
 20
4642.592468964542
 30
0.0
  0
LINE
  5
10F
330
1F
100
AcDbEntity
  8
DESSIN2D__ LIGNES VISIBLES
100
AcDbLine
 10
2008.492468963747
 20
4394.692468963752
 30
0.0
 11
2008.492468963747
 21
4642.592468963756
 31
0.0
  0
LINE
  5
110
330
1F
100
AcDbEntity
  8
DESSIN2D__ LIGNES VISIBLES
100
AcDbLine
 10
2011.842468963754
 20
4376.992468963756
 30
0.0
 11
2011.842468963754
 21
4378.69246896376
 31
0.0
  0
POLYLINE
  5
111
330
1F
100
AcDbEntity
  8
DESSIN2D__ LIGNES VISIBLES
100
AcDb2dPolyline
 66
     1
 10
0.0
 20
0.0
 30
0.0
  0
VERTEX
  5
112
330
111
100
AcDbEntity
  8
DESSIN2D__ LIGNES VISIBLES
100
AcDbVertex
100
AcDb2dVertex
 10
2010.242468963755
 20
4384.692468963756
 30
0.0
  0
VERTEX
  5
113
330
111
100
AcDbEntity
  8
DESSIN2D__ LIGNES VISIBLES
100
AcDbVertex
100
AcDb2dVertex
 10
2006.742468963756
 20
4384.692468963756
 30
0.0
  0
VERTEX
  5
114
330
111
100
AcDbEntity
  8
DESSIN2D__ LIGNES VISIBLES
100
AcDbVertex
100
AcDb2dVertex
 10
2006.742684529024
 20
4394.19268452902
 30
0.0
  0
VERTEX
  5
115
330
111
100
AcDbEntity
  8
DESSIN2D__ LIGNES VISIBLES
100
AcDbVertex
100
AcDb2dVertex
 10
2007.242838504216
 20
4394.692468963752
 30
0.0
  0
VERTEX
  5
116
330
111
100
AcDbEntity
  8
DESSIN2D__ LIGNES VISIBLES
100
AcDbVertex
100
AcDb2dVertex
 10
2013.242099423293
 20
4394.692468963752
 30
0.0
  0
VERTEX
  5
117
330
111
100
AcDbEntity
  8
DESSIN2D__ LIGNES VISIBLES
100
AcDbVertex
100
AcDb2dVertex
 10
2013.742253398485
 20
4394.19268452902
 30
0.0
  0
VERTEX
  5
118
330
111
100
AcDbEntity
  8
DESSIN2D__ LIGNES VISIBLES
100
AcDbVertex
100
AcDb2dVertex
 10
2013.742037833217
 20
4384.692468963747
 30
0.0
  0
VERTEX
  5
119
330
111
100
AcDbEntity
  8
DESSIN2D__ LIGNES VISIBLES
100
AcDbVertex
100
AcDb2dVertex
 10
2010.242468963755
 20
4384.692468963756
 30
0.0
  0
SEQEND
  5
11A
330
111
100
AcDbEntity
  8
DESSIN2D__ LIGNES VISIBLES
  0
POLYLINE
  5
11B
330
1F
100
AcDbEntity
  8
DESSIN2D__ LIGNES VISIBLES
100
AcDb2dPolyline
 66
     1
 10
0.0
 20
0.0
 30
0.0
  0
VERTEX
  5
11C
330
11B
100
AcDbEntity
  8
DESSIN2D__ LIGNES VISIBLES
100
AcDbVertex
100
AcDb2dVertex
 10
1930.242468963763
 20
4349.492468963769
 30
0.0
  0
VERTEX
  5
11D
330
11B
100
AcDbEntity
  8
DESSIN2D__ LIGNES VISIBLES
100
AcDbVertex
100
AcDb2dVertex
 10
1930.242468963758
 20
4376.992468963756
 30
0.0
  0
VERTEX
  5
11E
330
11B
100
AcDbEntity
  8
DESSIN2D__ LIGNES VISIBLES
100
AcDbVertex
100
AcDb2dVertex
 10
2090.242468963728
 20
4376.992468963756
 30
0.0
  0
VERTEX
  5
11F
330
11B
100
AcDbEntity
  8
DESSIN2D__ LIGNES VISIBLES
100
AcDbVertex
100
AcDb2dVertex
 10
2090.242468963728
 20
4349.492468963769
 30
0.0
  0
VERTEX
  5
120
330
11B
100
AcDbEntity
  8
DESSIN2D__ LIGNES VISIBLES
100
AcDbVertex
100
AcDb2dVertex
 10
1930.242468963763
 20
4349.492468963769
 30
0.0
  0
SEQEND
  5
121
330
11B
100
AcDbEntity
  8
DESSIN2D__ LIGNES VISIBLES
  0
POLYLINE
  5
122
330
1F
100
AcDbEntity
  8
DESSIN2D__ LIGNES VISIBLES
100
AcDb2dPolyline
 66
     1
 10
0.0
 20
0.0
 30
0.0
  0
VERTEX
  5
123
330
122
100
AcDbEntity
  8
DESSIN2D__ LIGNES VISIBLES
100
AcDbVertex
100
AcDb2dVertex
 10
2030.242468963748
 20
4337.192468963775
 30
0.0
  0
VERTEX
  5
124
330
122
100
AcDbEntity
  8
DESSIN2D__ LIGNES VISIBLES
100
AcDbVertex
100
AcDb2dVertex
 10
1990.242468963759
 20
4337.192468963775
 30
0.0
  0
VERTEX
  5
125
330
122
100
AcDbEntity
  8
DESSIN2D__ LIGNES VISIBLES
100
AcDbVertex
100
AcDb2dVertex
 10
1990.242468963759
 20
4361.192468963762
 30
0.0
  0
VERTEX
  5
126
330
122
100
AcDbEntity
  8
DESSIN2D__ LIGNES VISIBLES
100
AcDbVertex
100
AcDb2dVertex
 10
2030.242468963748
 20
4361.192468963762
 30
0.0
  0
VERTEX
  5
127
330
122
100
AcDbEntity
  8
DESSIN2D__ LIGNES VISIBLES
100
AcDbVertex
100
AcDb2dVertex
 10
2030.242468963748
 20
4337.192468963775
 30
0.0
  0
SEQEND
  5
128
330
122
100
AcDbEntity
  8
DESSIN2D__ LIGNES VISIBLES
  0
ENDSEC
  0
SECTION
  2
OBJECTS
  0
DICTIONARY
  5
C
330
0
100
AcDbDictionary
281
     1
  3
ACAD_GROUP
350
D
  3
ACAD_LAYOUT
350
1A
  3
ACAD_MLEADERSTYLE
350
12C
  3
ACAD_MLINESTYLE
350
17
  3
ACAD_PLOTSETTINGS
350
19
  3
ACAD_PLOTSTYLENAME
350
E
  3
ACAD_SCALELIST
350
97
  3
ACAD_TABLESTYLE
350
12B
  3
ACAD_VISUALSTYLE
350
2A
  3
AcDbVariableDictionary
350
129
  0
DICTIONARY
  5
D
102
{ACAD_REACTORS
330
C
102
}
330
C
100
AcDbDictionary
281
     1
  0
DICTIONARY
  5
1A
102
{ACAD_REACTORS
330
C
102
}
330
C
100
AcDbDictionary
281
     1
  3
Layout1
350
1E
  3
Layout2
350
26
  3
Model
350
22
  0
DICTIONARY
  5
12C
102
{ACAD_REACTORS
330
C
102
}
330
C
100
AcDbDictionary
281
     1
  0
DICTIONARY
  5
17
102
{ACAD_REACTORS
330
C
102
}
330
C
100
AcDbDictionary
281
     1
  3
Standard
350
18
  0
DICTIONARY
  5
19
102
{ACAD_REACTORS
330
C
102
}
330
C
100
AcDbDictionary
281
     1
  0
ACDBDICTIONARYWDFLT
  5
E
102
{ACAD_REACTORS
330
C
102
}
330
C
100
AcDbDictionary
281
     1
  3
Normal
350
F
100
AcDbDictionaryWithDefault
340
F
  0
DICTIONARY
  5
97
102
{ACAD_REACTORS
330
C
102
}
330
C
100
AcDbDictionary
281
     1
  3
A0
350
98
  3
A1
350
99
  3
A2
350
9A
  3
A3
350
9B
  3
A4
350
9C
  3
A5
350
9D
  3
A6
350
9E
  3
A7
350
9F
  3
A8
350
A0
  3
A9
350
A1
  3
B0
350
A2
  3
B1
350
A3
  3
B2
350
A4
  3
B3
350
A5
  3
B4
350
A6
  3
B5
350
A7
  3
B6
350
A8
  3
B7
350
A9
  3
B8
350
AA
  3
B9
350
AB
  3
C0
350
AC
  3
C1
350
AD
  3
C2
350
AE
  3
C3
350
AF
  3
C4
350
B0
  3
C5
350
B1
  3
C6
350
B2
  3
C7
350
B3
  3
C8
350
B4
  3
C9
350
B5
  3
D0
350
B6
  3
D1
350
B7
  3
D2
350
B8
  0
DICTIONARY
  5
12B
102
{ACAD_REACTORS
330
C
102
}
330
C
100
AcDbDictionary
281
     1
  0
DICTIONARY
  5
2A
102
{ACAD_REACTORS
330
C
102
}
330
C
100
AcDbDictionary
281
     1
  3
2dWireframe
350
2F
  3
3D Hidden
350
31
  3
3dWireframe
350
30
  3
Basic
350
32
  3
Brighten
350
36
  3
ColorChange
350
3A
  3
Conceptual
350
34
  3
Dim
350
35
  3
Facepattern
350
39
  3
Flat
350
2B
  3
FlatWithEdges
350
2C
  3
Gouraud
350
2D
  3
GouraudWithEdges
350
2E
  3
Linepattern
350
38
  3
Realistic
350
33
  3
Thicken
350
37
  0
DICTIONARY
  5
129
102
{ACAD_REACTORS
330
C
102
}
330
C
100
AcDbDictionary
281
     1
  3
CANNOSCALE
350
12A
  0
LAYOUT
  5
1E
102
{ACAD_REACTORS
330
1A
102
}
330
1A
100
AcDbPlotSettings
  1

  2
none_device
  4

  6

 40
0.0
 41
0.0
 42
0.0
 43
0.0
 44
0.0
 45
0.0
 46
0.0
 47
0.0
 48
0.0
 49
0.0
140
0.0
141
0.0
142
1.0
143
1.0
 70
   688
 72
     0
 73
     0
 74
     5
  7

 75
    16
 76
     0
 77
     2
 78
   300
147
1.0
148
0.0
149
0.0
100
AcDbLayout
  1
Layout1
 70
     1
 71
     1
 10
0.0
 20
0.0
 11
12.0
 21
9.0
 12
0.0
 22
0.0
 32
0.0
 14
1.000000000000000E+20
 24
1.000000000000000E+20
 34
1.000000000000000E+20
 15
-1.000000000000000E+20
 25
-1.000000000000000E+20
 35
-1.000000000000000E+20
146
0.0
 13
0.0
 23
0.0
 33
0.0
 16
1.0
 26
0.0
 36
0.0
 17
0.0
 27
1.0
 37
0.0
 76
     0
330
1B
  0
LAYOUT
  5
26
102
{ACAD_REACTORS
330
1A
102
}
330
1A
100
AcDbPlotSettings
  1

  2
none_device
  4

  6

 40
0.0
 41
0.0
 42
0.0
 43
0.0
 44
0.0
 45
0.0
 46
0.0
 47
0.0
 48
0.0
 49
0.0
140
0.0
141
0.0
142
1.0
143
1.0
 70
   688
 72
     0
 73
     0
 74
     5
  7

 75
    16
 76
     0
 77
     2
 78
   300
147
1.0
148
0.0
149
0.0
100
AcDbLayout
  1
Layout2
 70
     1
 71
     2
 10
0.0
 20
0.0
 11
0.0
 21
0.0
 12
0.0
 22
0.0
 32
0.0
 14
0.0
 24
0.0
 34
0.0
 15
0.0
 25
0.0
 35
0.0
146
0.0
 13
0.0
 23
0.0
 33
0.0
 16
1.0
 26
0.0
 36
0.0
 17
0.0
 27
1.0
 37
0.0
 76
     0
330
23
  0
LAYOUT
  5
22
102
{ACAD_REACTORS
330
1A
102
}
330
1A
100
AcDbPlotSettings
  1

  2
none_device
  4

  6

 40
0.0
 41
0.0
 42
0.0
 43
0.0
 44
0.0
 45
0.0
 46
0.0
 47
0.0
 48
0.0
 49
0.0
140
0.0
141
0.0
142
1.0
143
1.0
 70
  1712
 72
     0
 73
     0
 74
     0
  7

 75
     0
 76
     0
 77
     2
 78
   300
147
1.0
148
0.0
149
0.0
100
AcDbLayout
  1
Model
 70
     1
 71
     0
 10
0.0
 20
0.0
 11
12.0
 21
9.0
 12
0.0
 22
0.0
 32
0.0
 14
413.0000000000001
 24
2953.0
 34
0.0
 15
2135.959135630401
 25
4692.492468963756
 35
0.0
146
0.0
 13
0.0
 23
0.0
 33
0.0
 16
1.0
 26
0.0
 36
0.0
 17
0.0
 27
1.0
 37
0.0
 76
     0
330
1F
331
29
  0
MLINESTYLE
  5
18
102
{ACAD_REACTORS
330
17
102
}
330
17
100
AcDbMlineStyle
  2
Standard
 70
     0
  3

 62
   256
 51
90.0
 52
90.0
 71
     2
 49
0.5
 62
   256
  6
BYLAYER
 49
-0.5
 62
   256
  6
BYLAYER
  0
ACDBPLACEHOLDER
  5
F
102
{ACAD_REACTORS
330
E
102
}
330
E
  0
SCALE
  5
98
102
{ACAD_REACTORS
330
97
102
}
330
97
100
AcDbScale
 70
     0
300
1:1
140
1.0
141
1.0
290
     1
  0
SCALE
  5
99
102
{ACAD_REACTORS
330
97
102
}
330
97
100
AcDbScale
 70
     0
300
1:2
140
1.0
141
2.0
290
     0
  0
SCALE
  5
9A
102
{ACAD_REACTORS
330
97
102
}
330
97
100
AcDbScale
 70
     0
300
1:4
140
1.0
141
4.0
290
     0
  0
SCALE
  5
9B
102
{ACAD_REACTORS
330
97
102
}
330
97
100
AcDbScale
 70
     0
300
1:5
140
1.0
141
5.0
290
     0
  0
SCALE
  5
9C
102
{ACAD_REACTORS
330
97
102
}
330
97
100
AcDbScale
 70
     0
300
1:8
140
1.0
141
8.0
290
     0
  0
SCALE
  5
9D
102
{ACAD_REACTORS
330
97
102
}
330
97
100
AcDbScale
 70
     0
300
1:10
140
1.0
141
10.0
290
     0
  0
SCALE
  5
9E
102
{ACAD_REACTORS
330
97
102
}
330
97
100
AcDbScale
 70
     0
300
1:16
140
1.0
141
16.0
290
     0
  0
SCALE
  5
9F
102
{ACAD_REACTORS
330
97
102
}
330
97
100
AcDbScale
 70
     0
300
1:20
140
1.0
141
20.0
290
     0
  0
SCALE
  5
A0
102
{ACAD_REACTORS
330
97
102
}
330
97
100
AcDbScale
 70
     0
300
1:30
140
1.0
141
30.0
290
     0
  0
SCALE
  5
A1
102
{ACAD_REACTORS
330
97
102
}
330
97
100
AcDbScale
 70
     0
300
1:40
140
1.0
141
40.0
290
     0
  0
SCALE
  5
A2
102
{ACAD_REACTORS
330
97
102
}
330
97
100
AcDbScale
 70
     0
300
1:50
140
1.0
141
50.0
290
     0
  0
SCALE
  5
A3
102
{ACAD_REACTORS
330
97
102
}
330
97
100
AcDbScale
 70
     0
300
1:100
140
1.0
141
100.0
290
     0
  0
SCALE
  5
A4
102
{ACAD_REACTORS
330
97
102
}
330
97
100
AcDbScale
 70
     0
300
2:1
140
2.0
141
1.0
290
     0
  0
SCALE
  5
A5
102
{ACAD_REACTORS
330
97
102
}
330
97
100
AcDbScale
 70
     0
300
4:1
140
4.0
141
1.0
290
     0
  0
SCALE
  5
A6
102
{ACAD_REACTORS
330
97
102
}
330
97
100
AcDbScale
 70
     0
300
8:1
140
8.0
141
1.0
290
     0
  0
SCALE
  5
A7
102
{ACAD_REACTORS
330
97
102
}
330
97
100
AcDbScale
 70
     0
300
10:1
140
10.0
141
1.0
290
     0
  0
SCALE
  5
A8
102
{ACAD_REACTORS
330
97
102
}
330
97
100
AcDbScale
 70
     0
300
100:1
140
100.0
141
1.0
290
     0
  0
SCALE
  5
A9
102
{ACAD_REACTORS
330
97
102
}
330
97
100
AcDbScale
 70
     0
300
1/128" = 1'-0"
140
0.0078125
141
12.0
290
     0
  0
SCALE
  5
AA
102
{ACAD_REACTORS
330
97
102
}
330
97
100
AcDbScale
 70
     0
300
1/64" = 1'-0"
140
0.015625
141
12.0
290
     0
  0
SCALE
  5
AB
102
{ACAD_REACTORS
330
97
102
}
330
97
100
AcDbScale
 70
     0
300
1/32" = 1'-0"
140
0.03125
141
12.0
290
     0
  0
SCALE
  5
AC
102
{ACAD_REACTORS
330
97
102
}
330
97
100
AcDbScale
 70
     0
300
1/16" = 1'-0"
140
0.0625
141
12.0
290
     0
  0
SCALE
  5
AD
102
{ACAD_REACTORS
330
97
102
}
330
97
100
AcDbScale
 70
     0
300
3/32" = 1'-0"
140
0.09375
141
12.0
290
     0
  0
SCALE
  5
AE
102
{ACAD_REACTORS
330
97
102
}
330
97
100
AcDbScale
 70
     0
300
1/8" = 1'-0"
140
0.125
141
12.0
290
     0
  0
SCALE
  5
AF
102
{ACAD_REACTORS
330
97
102
}
330
97
100
AcDbScale
 70
     0
300
3/16" = 1'-0"
140
0.1875
141
12.0
290
     0
  0
SCALE
  5
B0
102
{ACAD_REACTORS
330
97
102
}
330
97
100
AcDbScale
 70
     0
300
1/4" = 1'-0"
140
0.25
141
12.0
290
     0
  0
SCALE
  5
B1
102
{ACAD_REACTORS
330
97
102
}
330
97
100
AcDbScale
 70
     0
300
3/8" = 1'-0"
140
0.375
141
12.0
290
     0
  0
SCALE
  5
B2
102
{ACAD_REACTORS
330
97
102
}
330
97
100
AcDbScale
 70
     0
300
1/2" = 1'-0"
140
0.5
141
12.0
290
     0
  0
SCALE
  5
B3
102
{ACAD_REACTORS
330
97
102
}
330
97
100
AcDbScale
 70
     0
300
3/4" = 1'-0"
140
0.75
141
12.0
290
     0
  0
SCALE
  5
B4
102
{ACAD_REACTORS
330
97
102
}
330
97
100
AcDbScale
 70
     0
300
1" = 1'-0"
140
1.0
141
12.0
290
     0
  0
SCALE
  5
B5
102
{ACAD_REACTORS
330
97
102
}
330
97
100
AcDbScale
 70
     0
300
1-1/2" = 1'-0"
140
1.5
141
12.0
290
     0
  0
SCALE
  5
B6
102
{ACAD_REACTORS
330
97
102
}
330
97
100
AcDbScale
 70
     0
300
3" = 1'-0"
140
3.0
141
12.0
290
     0
  0
SCALE
  5
B7
102
{ACAD_REACTORS
330
97
102
}
330
97
100
AcDbScale
 70
     0
300
6" = 1'-0"
140
6.0
141
12.0
290
     0
  0
SCALE
  5
B8
102
{ACAD_REACTORS
330
97
102
}
330
97
100
AcDbScale
 70
     0
300
1'-0" = 1'-0"
140
12.0
141
12.0
290
     0
  0
VISUALSTYLE
  5
2F
102
{ACAD_REACTORS
330
2A
102
}
330
2A
100
AcDbVisualStyle
  2
2dWireframe
 70
     4
 71
     0
 72
     2
 73
     0
 90
        0
 40
-0.6
 41
-30.0
 62
     5
 63
     7
421
 16777215
 74
     1
 91
        4
 64
     7
 65
   257
 75
     1
175
     1
 42
1.0
 92
        0
 66
   257
 43
1.0
 76
     1
 77
     6
 78
     2
 67
     7
 79
     5
170
     0
171
     0
290
     0
174
     0
 93
        1
 44
0.0
173
     0
291
     0
 45
0.0
1001
ACAD
1000
AcDbSavedByObjectVersion
1070
     0
  0
VISUALSTYLE
  5
31
102
{ACAD_REACTORS
330
2A
102
}
330
2A
100
AcDbVisualStyle
  2
3D Hidden
 70
     6
 71
     1
 72
     2
 73
     2
 90
        0
 40
-0.6
 41
-30.0
 62
     5
 63
     7
421
 16777215
 74
     2
 91
        2
 64
     7
 65
   257
 75
     2
175
     1
 42
40.0
 92
        0
 66
   257
 43
1.0
 76
     1
 77
     6
 78
     2
 67
     7
 79
     3
170
     0
171
     0
290
     0
174
     0
 93
        1
 44
0.0
173
     0
291
     0
 45
0.0
1001
ACAD
1000
AcDbSavedByObjectVersion
1070
     0
  0
VISUALSTYLE
  5
30
102
{ACAD_REACTORS
330
2A
102
}
330
2A
100
AcDbVisualStyle
  2
3dWireframe
 70
     5
 71
     0
 72
     2
 73
     0
 90
        0
 40
-0.6
 41
-30.0
 62
     5
 63
     7
421
 16777215
 74
     1
 91
        4
 64
     7
 65
   257
 75
     1
175
     1
 42
1.0
 92
        0
 66
   257
 43
1.0
 76
     1
 77
     6
 78
     2
 67
     7
 79
     5
170
     0
171
     0
290
     0
174
     0
 93
        1
 44
0.0
173
     0
291
     0
 45
0.0
1001
ACAD
1000
AcDbSavedByObjectVersion
1070
     0
  0
VISUALSTYLE
  5
32
102
{ACAD_REACTORS
330
2A
102
}
330
2A
100
AcDbVisualStyle
  2
Basic
 70
     7
 71
     1
 72
     0
 73
     1
 90
        0
 40
-0.6
 41
-30.0
 62
     5
 63
     7
421
 16777215
 74
     0
 91
        4
 64
     7
 65
   257
 75
     1
175
     1
 42
1.0
 92
        8
 66
     7
 43
1.0
 76
     1
 77
     6
 78
     2
 67
     7
 79
     5
170
     0
171
     0
290
     0
174
     0
 93
        1
 44
0.0
173
     0
291
     1
 45
0.0
1001
ACAD
1000
AcDbSavedByObjectVersion
1070
     0
  0
VISUALSTYLE
  5
36
102
{ACAD_REACTORS
330
2A
102
}
330
2A
100
AcDbVisualStyle
  2
Brighten
 70
    12
 71
     2
 72
     2
 73
     0
 90
        0
 40
-0.6
 41
-30.0
 62
     5
 63
     7
421
 16777215
 74
     1
 91
        4
 64
     7
 65
   257
 75
     1
175
     1
 42
1.0
 92
        8
 66
     7
 43
1.0
 76
     1
 77
     6
 78
     2
 67
     7
 79
     5
170
     0
171
     0
290
     0
174
     0
 93
        1
 44
50.0
173
     0
291
     1
 45
0.0
1001
ACAD
1000
AcDbSavedByObjectVersion
1070
     0
  0
VISUALSTYLE
  5
3A
102
{ACAD_REACTORS
330
2A
102
}
330
2A
100
AcDbVisualStyle
  2
ColorChange
 70
    16
 71
     2
 72
     2
 73
     3
 90
        0
 40
-0.6
 41
-30.0
 62
     5
 63
     8
421
  8421504
 74
     1
 91
        4
 64
     7
 65
   257
 75
     1
175
     1
 42
1.0
 92
        8
 66
     8
424
  8421504
 43
1.0
 76
     1
 77
     6
 78
     2
 67
     7
 79
     5
170
     0
171
     0
290
     0
174
     0
 93
        1
 44
0.0
173
     0
291
     1
 45
0.0
1001
ACAD
1000
AcDbSavedByObjectVersion
1070
     0
  0
VISUALSTYLE
  5
34
102
{ACAD_REACTORS
330
2A
102
}
330
2A
100
AcDbVisualStyle
  2
Conceptual
 70
     9
 71
     3
 72
     2
 73
     0
 90
        0
 40
-0.6
 41
-30.0
 62
     5
 63
     7
421
 16777215
 74
     2
 91
        2
 64
     7
 65
   257
 75
     1
175
     1
 42
40.0
 92
        8
 66
     7
 43
1.0
 76
     1
 77
     6
 78
     2
 67
     7
 79
     3
170
     0
171
     0
290
     0
174
     0
 93
        1
 44
0.0
173
     0
291
     0
 45
0.0
1001
ACAD
1000
AcDbSavedByObjectVersion
1070
     0
  0
VISUALSTYLE
  5
35
102
{ACAD_REACTORS
330
2A
102
}
330
2A
100
AcDbVisualStyle
  2
Dim
 70
    11
 71
     2
 72
     2
 73
     0
 90
        0
 40
-0.6
 41
-30.0
 62
     5
 63
     7
421
 16777215
 74
     1
 91
        4
 64
     7
 65
   257
 75
     1
175
     1
 42
1.0
 92
        8
 66
     7
 43
1.0
 76
     1
 77
     6
 78
     2
 67
     7
 79
     5
170
     0
171
     0
290
     0
174
     0
 93
        1
 44
-50.0
173
     0
291
     1
 45
0.0
1001
ACAD
1000
AcDbSavedByObjectVersion
1070
     0
  0
VISUALSTYLE
  5
39
102
{ACAD_REACTORS
330
2A
102
}
330
2A
100
AcDbVisualStyle
  2
Facepattern
 70
    15
 71
     2
 72
     2
 73
     0
 90
        0
 40
-0.6
 41
-30.0
 62
     5
 63
     7
421
 16777215
 74
     1
 91
        4
 64
     7
 65
   257
 75
     1
175
     1
 42
1.0
 92
        8
 66
     7
 43
1.0
 76
     1
 77
     6
 78
     2
 67
     7
 79
     5
170
     0
171
     0
290
     0
174
     0
 93
        1
 44
0.0
173
     0
291
     1
 45
0.0
1001
ACAD
1000
AcDbSavedByObjectVersion
1070
     0
  0
VISUALSTYLE
  5
2B
102
{ACAD_REACTORS
330
2A
102
}
330
2A
100
AcDbVisualStyle
  2
Flat
 70
     0
 71
     2
 72
     1
 73
     1
 90
        2
 40
-0.6
 41
30.0
 62
     5
 63
     7
421
 16777215
 74
     0
 91
        4
 64
     7
 65
   257
 75
     1
175
     1
 42
1.0
 92
        8
 66
     7
 43
1.0
 76
     1
 77
     6
 78
     2
 67
     7
 79
     5
170
     0
171
     0
290
     0
174
     0
 93
       13
 44
0.0
173
     0
291
     1
 45
0.0
1001
ACAD
1000
AcDbSavedByObjectVersion
1070
     0
  0
VISUALSTYLE
  5
2C
102
{ACAD_REACTORS
330
2A
102
}
330
2A
100
AcDbVisualStyle
  2
FlatWithEdges
 70
     1
 71
     2
 72
     1
 73
     1
 90
        2
 40
-0.6
 41
30.0
 62
     5
 63
     7
421
 16777215
 74
     1
 91
        4
 64
     7
 65
   257
 75
     1
175
     1
 42
1.0
 92
        0
 66
   257
 43
1.0
 76
     1
 77
     6
 78
     2
 67
     7
 79
     5
170
     0
171
     0
290
     0
174
     0
 93
       13
 44
0.0
173
     0
291
     1
 45
0.0
1001
ACAD
1000
AcDbSavedByObjectVersion
1070
     0
  0
VISUALSTYLE
  5
2D
102
{ACAD_REACTORS
330
2A
102
}
330
2A
100
AcDbVisualStyle
  2
Gouraud
 70
     2
 71
     2
 72
     2
 73
     1
 90
        2
 40
-0.6
 41
30.0
 62
     5
 63
     7
421
 16777215
 74
     0
 91
        4
 64
     7
 65
   257
 75
     1
175
     1
 42
1.0
 92
        0
 66
     7
 43
1.0
 76
     1
 77
     6
 78
     2
 67
     7
 79
     5
170
     0
171
     0
290
     0
174
     0
 93
       13
 44
0.0
173
     0
291
     1
 45
0.0
1001
ACAD
1000
AcDbSavedByObjectVersion
1070
     0
  0
VISUALSTYLE
  5
2E
102
{ACAD_REACTORS
330
2A
102
}
330
2A
100
AcDbVisualStyle
  2
GouraudWithEdges
 70
     3
 71
     2
 72
     2
 73
     1
 90
        2
 40
-0.6
 41
30.0
 62
     5
 63
     7
421
 16777215
 74
     1
 91
        4
 64
     7
 65
   257
 75
     1
175
     1
 42
1.0
 92
        0
 66
   257
 43
1.0
 76
     1
 77
     6
 78
     2
 67
     7
 79
     5
170
     0
171
     0
290
     0
174
     0
 93
       13
 44
0.0
173
     0
291
     1
 45
0.0
1001
ACAD
1000
AcDbSavedByObjectVersion
1070
     0
  0
VISUALSTYLE
  5
38
102
{ACAD_REACTORS
330
2A
102
}
330
2A
100
AcDbVisualStyle
  2
Linepattern
 70
    14
 71
     2
 72
     2
 73
     0
 90
        0
 40
-0.6
 41
-30.0
 62
     5
 63
     7
421
 16777215
 74
     1
 91
        4
 64
     7
 65
   257
 75
     7
175
     7
 42
1.0
 92
        8
 66
     7
 43
1.0
 76
     1
 77
     6
 78
     2
 67
     7
 79
     5
170
     0
171
     0
290
     0
174
     0
 93
        1
 44
0.0
173
     0
291
     1
 45
0.0
1001
ACAD
1000
AcDbSavedByObjectVersion
1070
     0
  0
VISUALSTYLE
  5
33
102
{ACAD_REACTORS
330
2A
102
}
330
2A
100
AcDbVisualStyle
  2
Realistic
 70
     8
 71
     2
 72
     2
 73
     0
 90
        0
 40
-0.6
 41
-30.0
 62
     5
 63
     7
421
 16777215
 74
     1
 91
        0
 64
     7
 65
   257
 75
     1
175
     1
 42
1.0
 92
        8
 66
     8
424
  7895160
 43
1.0
 76
     1
 77
     6
 78
     2
 67
     7
 79
     5
170
     0
171
     0
290
     0
174
     0
 93
       13
 44
0.0
173
     0
291
     0
 45
0.0
1001
ACAD
1000
AcDbSavedByObjectVersion
1070
     0
  0
VISUALSTYLE
  5
37
102
{ACAD_REACTORS
330
2A
102
}
330
2A
100
AcDbVisualStyle
  2
Thicken
 70
    13
 71
     2
 72
     2
 73
     0
 90
        0
 40
-0.6
 41
-30.0
 62
     5
 63
     7
421
 16777215
 74
     1
 91
        4
 64
     7
 65
   257
 75
     1
175
     1
 42
1.0
 92
       12
 66
     7
 43
1.0
 76
     1
 77
     6
 78
     2
 67
     7
 79
     5
170
     0
171
     0
290
     0
174
     0
 93
        1
 44
0.0
173
     0
291
     1
 45
0.0
1001
ACAD
1000
AcDbSavedByObjectVersion
1070
     0
  0
DICTIONARYVAR
  5
12A
102
{ACAD_REACTORS
330
129
102
}
330
129
100
DictionaryVariables
280
     0
  1
1:1
  0
ENDSEC
  0
EOF
