  0
SECTION
  2
HEADER
  9
$ACADVER
  1
AC1018
  9
$ACADMAINTVER
 70
     0
  9
$DWGCODEPAGE
  3
ANSI_1252
  9
$INSBASE
 10
0.0
 20
0.0
 30
0.0
  9
$EXTMIN
 10
856.8730885397503
 20
1789.99950372348
 30
0.0
  9
$EXTMAX
 10
2376.998145658239
 20
3676.841541522478
 30
0.0
  9
$LIMMIN
 10
0.0
 20
0.0
  9
$LIMMAX
 10
12.0
 20
9.0
  9
$ORTHOMODE
 70
     0
  9
$REGENMODE
 70
     1
  9
$FILLMODE
 70
     1
  9
$QTEXTMODE
 70
     0
  9
$MIRRTEXT
 70
     1
  9
$LTSCALE
 40
1.0
  9
$ATTMODE
 70
     1
  9
$TEXTSIZE
 40
0.2
  9
$TRACEWID
 40
0.05
  9
$TEXTSTYLE
  7
Standard
  9
$CLAYER
  8
Predefinito
  9
$CELTYPE
  6
ByLayer
  9
$CECOLOR
 62
   256
  9
$CELTSCALE
 40
1.0
  9
$DISPSILH
 70
     0
  9
$DIMSCALE
 40
1.0
  9
$DIMASZ
 40
0.18
  9
$DIMEXO
 40
0.0625
  9
$DIMDLI
 40
0.38
  9
$DIMRND
 40
0.0
  9
$DIMDLE
 40
0.0
  9
$DIMEXE
 40
0.18
  9
$DIMTP
 40
0.0
  9
$DIMTM
 40
0.0
  9
$DIMTXT
 40
0.18
  9
$DIMCEN
 40
0.09
  9
$DIMTSZ
 40
0.0
  9
$DIMTOL
 70
     0
  9
$DIMLIM
 70
     0
  9
$DIMTIH
 70
     1
  9
$DIMTOH
 70
     1
  9
$DIMSE1
 70
     0
  9
$DIMSE2
 70
     0
  9
$DIMTAD
 70
     0
  9
$DIMZIN
 70
     0
  9
$DIMBLK
  1

  9
$DIMASO
 70
     1
  9
$DIMSHO
 70
     1
  9
$DIMPOST
  1

  9
$DIMAPOST
  1

  9
$DIMALT
 70
     0
  9
$DIMALTD
 70
     2
  9
$DIMALTF
 40
25.4
  9
$DIMLFAC
 40
1.0
  9
$DIMTOFL
 70
     0
  9
$DIMTVP
 40
0.0
  9
$DIMTIX
 70
     0
  9
$DIMSOXD
 70
     0
  9
$DIMSAH
 70
     0
  9
$DIMBLK1
  1

  9
$DIMBLK2
  1

  9
$DIMSTYLE
  2
Standard
  9
$DIMCLRD
 70
     0
  9
$DIMCLRE
 70
     0
  9
$DIMCLRT
 70
     0
  9
$DIMTFAC
 40
1.0
  9
$DIMGAP
 40
0.09
  9
$DIMJUST
 70
     0
  9
$DIMSD1
 70
     0
  9
$DIMSD2
 70
     0
  9
$DIMTOLJ
 70
     1
  9
$DIMTZIN
 70
     0
  9
$DIMALTZ
 70
     0
  9
$DIMALTTZ
 70
     0
  9
$DIMUPT
 70
     0
  9
$DIMDEC
 70
     4
  9
$DIMTDEC
 70
     4
  9
$DIMALTU
 70
     2
  9
$DIMALTTD
 70
     2
  9
$DIMTXSTY
  7
Standard
  9
$DIMAUNIT
 70
     0
  9
$DIMADEC
 70
     0
  9
$DIMALTRND
 40
0.0
  9
$DIMAZIN
 70
     0
  9
$DIMDSEP
 70
    46
  9
$DIMATFIT
 70
     3
  9
$DIMFRAC
 70
     0
  9
$DIMLDRBLK
  1

  9
$DIMLUNIT
 70
     2
  9
$DIMLWD
 70
    -2
  9
$DIMLWE
 70
    -2
  9
$DIMTMOVE
 70
     2
  9
$LUNITS
 70
     2
  9
$LUPREC
 70
     3
  9
$SKETCHINC
 40
0.1
  9
$FILLETRAD
 40
0.5
  9
$AUNITS
 70
     0
  9
$AUPREC
 70
     0
  9
$MENU
  1
.
  9
$ELEVATION
 40
0.0
  9
$PELEVATION
 40
0.0
  9
$THICKNESS
 40
0.0
  9
$LIMCHECK
 70
     0
  9
$CHAMFERA
 40
0.5
  9
$CHAMFERB
 40
0.5
  9
$CHAMFERC
 40
1.0
  9
$CHAMFERD
 40
0.0
  9
$SKPOLY
 70
     0
  9
$TDCREATE
 40
2457436.612618449
  9
$TDUCREATE
 40
2457436.570951783
  9
$TDUPDATE
 40
2457436.612618461
  9
$TDUUPDATE
 40
2457436.570951794
  9
$TDINDWG
 40
0.0000000116
  9
$TDUSRTIMER
 40
0.0000000116
  9
$USRTIMER
 70
     1
  9
$ANGBASE
 50
0.0
  9
$ANGDIR
 70
     0
  9
$PDMODE
 70
     0
  9
$PDSIZE
 40
0.0
  9
$PLINEWID
 40
0.0
  9
$SPLFRAME
 70
     0
  9
$SPLINETYPE
 70
     6
  9
$SPLINESEGS
 70
     8
  9
$HANDSEED
  5
1A6
  9
$SURFTAB1
 70
     6
  9
$SURFTAB2
 70
     6
  9
$SURFTYPE
 70
     6
  9
$SURFU
 70
     6
  9
$SURFV
 70
     6
  9
$UCSBASE
  2

  9
$UCSNAME
  2

  9
$UCSORG
 10
0.0
 20
0.0
 30
0.0
  9
$UCSXDIR
 10
1.0
 20
0.0
 30
0.0
  9
$UCSYDIR
 10
0.0
 20
1.0
 30
0.0
  9
$UCSORTHOREF
  2

  9
$UCSORTHOVIEW
 70
     0
  9
$UCSORGTOP
 10
0.0
 20
0.0
 30
0.0
  9
$UCSORGBOTTOM
 10
0.0
 20
0.0
 30
0.0
  9
$UCSORGLEFT
 10
0.0
 20
0.0
 30
0.0
  9
$UCSORGRIGHT
 10
0.0
 20
0.0
 30
0.0
  9
$UCSORGFRONT
 10
0.0
 20
0.0
 30
0.0
  9
$UCSORGBACK
 10
0.0
 20
0.0
 30
0.0
  9
$PUCSBASE
  2

  9
$PUCSNAME
  2

  9
$PUCSORG
 10
0.0
 20
0.0
 30
0.0
  9
$PUCSXDIR
 10
1.0
 20
0.0
 30
0.0
  9
$PUCSYDIR
 10
0.0
 20
1.0
 30
0.0
  9
$PUCSORTHOREF
  2

  9
$PUCSORTHOVIEW
 70
     0
  9
$PUCSORGTOP
 10
0.0
 20
0.0
 30
0.0
  9
$PUCSORGBOTTOM
 10
0.0
 20
0.0
 30
0.0
  9
$PUCSORGLEFT
 10
0.0
 20
0.0
 30
0.0
  9
$PUCSORGRIGHT
 10
0.0
 20
0.0
 30
0.0
  9
$PUCSORGFRONT
 10
0.0
 20
0.0
 30
0.0
  9
$PUCSORGBACK
 10
0.0
 20
0.0
 30
0.0
  9
$USERI1
 70
     0
  9
$USERI2
 70
     0
  9
$USERI3
 70
     0
  9
$USERI4
 70
     0
  9
$USERI5
 70
     0
  9
$USERR1
 40
0.0
  9
$USERR2
 40
0.0
  9
$USERR3
 40
0.0
  9
$USERR4
 40
0.0
  9
$USERR5
 40
0.0
  9
$WORLDVIEW
 70
     1
  9
$SHADEDGE
 70
     3
  9
$SHADEDIF
 70
    70
  9
$TILEMODE
 70
     1
  9
$MAXACTVP
 70
    64
  9
$PINSBASE
 10
0.0
 20
0.0
 30
0.0
  9
$PLIMCHECK
 70
     0
  9
$PEXTMIN
 10
1.000000000000000E+20
 20
1.000000000000000E+20
 30
1.000000000000000E+20
  9
$PEXTMAX
 10
-1.000000000000000E+20
 20
-1.000000000000000E+20
 30
-1.000000000000000E+20
  9
$PLIMMIN
 10
0.0
 20
0.0
  9
$PLIMMAX
 10
12.0
 20
9.0
  9
$UNITMODE
 70
     0
  9
$VISRETAIN
 70
     1
  9
$PLINEGEN
 70
     0
  9
$PSLTSCALE
 70
     1
  9
$TREEDEPTH
 70
  3020
  9
$CMLSTYLE
  2
Standard
  9
$CMLJUST
 70
     0
  9
$CMLSCALE
 40
1.0
  9
$PROXYGRAPHICS
 70
     1
  9
$MEASUREMENT
 70
     0
  9
$CELWEIGHT
370
    -1
  9
$ENDCAPS
280
     0
  9
$JOINSTYLE
280
     0
  9
$LWDISPLAY
290
     0
  9
$INSUNITS
 70
     4
  9
$HYPERLINKBASE
  1

  9
$STYLESHEET
  1

  9
$XEDIT
290
     1
  9
$CEPSNTYPE
380
     0
  9
$PSTYLEMODE
290
     1
  9
$FINGERPRINTGUID
  2
{0C4EC69B-4E2D-4ED0-BAA1-6A699922F984}
  9
$VERSIONGUID
  2
{FAEB1C32-E019-11D5-929B-00C0DF256EC4}
  9
$EXTNAMES
290
     1
  9
$PSVPSCALE
 40
0.0
  9
$OLESTARTUP
290
     0
  9
$SORTENTS
280
   127
  9
$INDEXCTL
280
     0
  9
$HIDETEXT
280
     1
  9
$XCLIPFRAME
290
     0
  9
$HALOGAP
280
     0
  9
$OBSCOLOR
 70
   257
  9
$OBSLTYPE
280
     0
  9
$INTERSECTIONDISPLAY
280
     0
  9
$INTERSECTIONCOLOR
 70
   257
  9
$DIMASSOC
280
     2
  9
$PROJECTNAME
  1

  0
ENDSEC
  0
SECTION
  2
CLASSES
  0
CLASS
  1
ACDBDICTIONARYWDFLT
  2
AcDbDictionaryWithDefault
  3
ObjectDBX Classes
 90
        0
 91
        4
280
     0
281
     0
  0
CLASS
  1
VISUALSTYLE
  2
AcDbVisualStyle
  3
ObjectDBX Classes
 90
     4095
 91
        4
280
     0
281
     0
  0
CLASS
  1
SCALE
  2
AcDbScale
  3
ObjectDBX Classes
 90
     1153
 91
        4
280
     0
281
     0
  0
CLASS
  1
DICTIONARYVAR
  2
AcDbDictionaryVar
  3
ObjectDBX Classes
 90
        0
 91
        4
280
     0
281
     0
  0
ENDSEC
  0
SECTION
  2
TABLES
  0
TABLE
  2
VPORT
  5
8
330
0
100
AcDbSymbolTable
 70
     1
  0
VPORT
  5
29
330
8
100
AcDbSymbolTableRecord
100
AcDbViewportTableRecord
  2
*Active
 70
     0
 10
0.0
 20
0.0
 11
1.0
 21
1.0
 12
1616.935617098995
 22
2733.420522622979
 13
0.0
 23
0.0
 14
0.5
 24
0.5
 15
0.5
 25
0.5
 16
0.0
 26
0.0
 36
1.0
 17
0.0
 27
0.0
 37
0.0
 40
1924.578878554978
 41
0.8056451078923996
 42
50.0
 43
0.0
 44
0.0
 50
0.0
 51
0.0
 71
     0
 72
   100
 73
     1
 74
     3
 75
     0
 76
     0
 77
     0
 78
     0
281
     0
 65
     1
110
0.0
120
0.0
130
0.0
111
1.0
121
0.0
131
0.0
112
0.0
122
1.0
132
0.0
 79
     0
146
0.0
  0
ENDTAB
  0
TABLE
  2
LTYPE
  5
5
330
0
100
AcDbSymbolTable
 70
     1
  0
LTYPE
  5
14
330
5
100
AcDbSymbolTableRecord
100
AcDbLinetypeTableRecord
  2
ByBlock
 70
     0
  3

 72
    65
 73
     0
 40
0.0
  0
LTYPE
  5
15
330
5
100
AcDbSymbolTableRecord
100
AcDbLinetypeTableRecord
  2
ByLayer
 70
     0
  3

 72
    65
 73
     0
 40
0.0
  0
LTYPE
  5
16
330
5
100
AcDbSymbolTableRecord
100
AcDbLinetypeTableRecord
  2
Continuous
 70
     0
  3
Solid line
 72
    65
 73
     0
 40
0.0
  0
ENDTAB
  0
TABLE
  2
LAYER
  5
2
330
0
100
AcDbSymbolTable
 70
     5
  0
LAYER
  5
10
330
2
100
AcDbSymbolTableRecord
100
AcDbLayerTableRecord
  2
0
 70
     0
 62
     7
  6
Continuous
370
    -3
390
F
  0
LAYER
  5
3B
330
2
100
AcDbSymbolTableRecord
100
AcDbLayerTableRecord
  2
Predefinito
 70
     0
 62
     7
  6
Continuous
370
    -3
390
F
  0
LAYER
  5
61
330
2
100
AcDbSymbolTableRecord
100
AcDbLayerTableRecord
  2
Defpoints
 70
     0
 62
     7
  6
Continuous
290
     0
370
    -3
390
F
  0
LAYER
  5
95
330
2
100
AcDbSymbolTableRecord
100
AcDbLayerTableRecord
  2
Linee visibili 2D
 70
     0
 62
     7
  6
Continuous
370
    -3
390
F
  0
LAYER
  5
9F
330
2
100
AcDbSymbolTableRecord
100
AcDbLayerTableRecord
  2
Linee visibili 2D - Tangent
 70
     0
 62
     7
  6
Continuous
370
    -3
390
F
  0
ENDTAB
  0
TABLE
  2
STYLE
  5
3
330
0
100
AcDbSymbolTable
 70
     2
  0
STYLE
  5
11
330
3
100
AcDbSymbolTableRecord
100
AcDbTextStyleTableRecord
  2
Standard
 70
     0
 40
0.0
 41
1.0
 50
0.0
 71
     0
 42
0.2
  3
txt
  4

  0
STYLE
  5
5F
330
3
100
AcDbSymbolTableRecord
100
AcDbTextStyleTableRecord
  2
Predefinito
 70
     0
 40
0.0
 41
1.0
 50
0.0
 71
     0
 42
0.0
  3

  4

1001
ACAD
1000
Arial
1071
      256
  0
ENDTAB
  0
TABLE
  2
VIEW
  5
6
330
0
100
AcDbSymbolTable
 70
     0
  0
ENDTAB
  0
TABLE
  2
UCS
  5
7
330
0
100
AcDbSymbolTable
 70
     0
  0
ENDTAB
  0
TABLE
  2
APPID
  5
9
330
0
100
AcDbSymbolTable
 70
     1
  0
APPID
  5
12
330
9
100
AcDbSymbolTableRecord
100
AcDbRegAppTableRecord
  2
ACAD
 70
     0
  0
ENDTAB
  0
TABLE
  2
DIMSTYLE
  5
A
330
0
100
AcDbSymbolTable
 70
     2
100
AcDbDimStyleTable
  0
DIMSTYLE
105
27
330
A
100
AcDbSymbolTableRecord
100
AcDbDimStyleTableRecord
  2
Standard
 70
     0
340
11
  0
DIMSTYLE
105
60
102
{ACAD_REACTORS
330
3C
330
6E
330
7B
330
88
102
}
330
A
100
AcDbSymbolTableRecord
100
AcDbDimStyleTableRecord
  2
Stile di quota 01
 70
     0
 40
10.0
 41
1.0
 42
0.5
 44
0.5
 73
     0
 77
     1
 78
     1
140
1.0
141
0.5
172
     1
174
     1
179
     2
271
     2
284
     1
340
5F
  0
ENDTAB
  0
TABLE
  2
BLOCK_RECORD
  5
1
330
0
100
AcDbSymbolTable
 70
     5
  0
BLOCK_RECORD
  5
1F
330
1
100
AcDbSymbolTableRecord
100
AcDbBlockTableRecord
  2
*Model_Space
340
22
  0
BLOCK_RECORD
  5
1B
330
1
100
AcDbSymbolTableRecord
100
AcDbBlockTableRecord
  2
*Paper_Space
340
1E
  0
BLOCK_RECORD
  5
23
330
1
100
AcDbSymbolTableRecord
100
AcDbBlockTableRecord
  2
*Paper_Space0
340
26
  0
BLOCK_RECORD
  5
62
330
1
100
AcDbSymbolTableRecord
100
AcDbBlockTableRecord
  2
*D1
340
0
  0
BLOCK_RECORD
  5
6F
330
1
100
AcDbSymbolTableRecord
100
AcDbBlockTableRecord
  2
*D2
340
0
  0
BLOCK_RECORD
  5
7C
330
1
100
AcDbSymbolTableRecord
100
AcDbBlockTableRecord
  2
*D3
340
0
  0
BLOCK_RECORD
  5
89
330
1
100
AcDbSymbolTableRecord
100
AcDbBlockTableRecord
  2
*D4
340
0
  0
ENDTAB
  0
ENDSEC
  0
SECTION
  2
BLOCKS
  0
BLOCK
  5
20
330
1F
100
AcDbEntity
  8
0
100
AcDbBlockBegin
  2
*Model_Space
 70
     0
 10
0.0
 20
0.0
 30
0.0
  3
*Model_Space
  1

  0
ENDBLK
  5
21
330
1F
100
AcDbEntity
  8
0
100
AcDbBlockEnd
  0
BLOCK
  5
1C
330
1B
100
AcDbEntity
 67
     1
  8
0
100
AcDbBlockBegin
  2
*Paper_Space
 70
     0
 10
0.0
 20
0.0
 30
0.0
  3
*Paper_Space
  1

  0
ENDBLK
  5
1D
330
1B
100
AcDbEntity
 67
     1
  8
0
100
AcDbBlockEnd
  0
BLOCK
  5
24
330
23
100
AcDbEntity
  8
0
100
AcDbBlockBegin
  2
*Paper_Space0
 70
     0
 10
0.0
 20
0.0
 30
0.0
  3
*Paper_Space0
  1

  0
ENDBLK
  5
25
330
23
100
AcDbEntity
  8
0
100
AcDbBlockEnd
  0
BLOCK
  5
6C
330
62
100
AcDbEntity
  8
0
100
AcDbBlockBegin
  2
*D1
 70
     1
 10
0.0
 20
0.0
 30
0.0
  3
*D1
  1

  0
LINE
  5
63
330
62
100
AcDbEntity
  8
Predefinito
 62
     0
370
    -2
100
AcDbLine
 10
1052.999119882006
 20
2149.99950372348
 30
0.0
 11
1052.999119882006
 21
1789.99950372348
 31
0.0
  0
LINE
  5
64
330
62
100
AcDbEntity
  8
Predefinito
 62
     0
370
    -2
100
AcDbLine
 10
1602.998127000892
 20
2149.999503395597
 30
0.0
 11
1602.998127000892
 21
1789.99950372348
 31
0.0
  0
LINE
  5
65
330
62
100
AcDbEntity
  8
Predefinito
 62
     0
370
    -2
100
AcDbLine
 10
1062.999119882006
 20
1794.99950372348
 30
0.0
 11
1592.998127000892
 21
1794.99950372348
 31
0.0
  0
SOLID
  5
66
330
62
100
AcDbEntity
  8
Predefinito
 62
     0
100
AcDbTrace
 10
1062.999119882006
 20
1796.666170390147
 30
0.0
 11
1062.999119882006
 21
1793.332837056814
 31
0.0
 12
1052.999119882006
 22
1794.99950372348
 32
0.0
 13
1052.999119882006
 23
1794.99950372348
 33
0.0
  0
SOLID
  5
67
330
62
100
AcDbEntity
  8
Predefinito
 62
     0
100
AcDbTrace
 10
1592.998127000892
 20
1793.332837056814
 30
0.0
 11
1592.998127000892
 21
1796.666170390147
 31
0.0
 12
1602.998127000892
 22
1794.99950372348
 32
0.0
 13
1602.998127000892
 23
1794.99950372348
 33
0.0
  0
MTEXT
  5
68
330
62
100
AcDbEntity
  8
Predefinito
 62
     0
100
AcDbMText
 10
1327.998623441449
 20
1801.00450372348
 30
0.0
 40
10.0
 41
0.0
 71
     5
 72
     1
  1
\A1;550
  7
Predefinito
 73
     1
 44
1.0
  0
POINT
  5
69
330
62
100
AcDbEntity
  8
Defpoints
 62
     0
100
AcDbPoint
 10
1052.999119882006
 20
2154.99950372348
 30
0.0
  0
POINT
  5
6A
330
62
100
AcDbEntity
  8
Defpoints
 62
     0
100
AcDbPoint
 10
1602.998127000892
 20
2154.999503395597
 30
0.0
  0
POINT
  5
6B
330
62
100
AcDbEntity
  8
Defpoints
 62
     0
100
AcDbPoint
 10
1602.998127000892
 20
1794.99950372348
 30
0.0
  0
ENDBLK
  5
6D
330
62
100
AcDbEntity
  8
0
100
AcDbBlockEnd
  0
BLOCK
  5
79
330
6F
100
AcDbEntity
  8
0
100
AcDbBlockBegin
  2
*D2
 70
     1
 10
0.0
 20
0.0
 30
0.0
  3
*D2
  1

  0
LINE
  5
70
330
6F
100
AcDbEntity
  8
Predefinito
 62
     0
370
    -2
100
AcDbLine
 10
1222.999434556908
 20
3610.711541522478
 30
0.0
 11
1133.999434556908
 21
3610.711541522478
 31
0.0
  0
LINE
  5
71
330
6F
100
AcDbEntity
  8
Predefinito
 62
     0
370
    -2
100
AcDbLine
 10
1197.999434556908
 20
3567.711541522478
 30
0.0
 11
1133.999434556908
 21
3567.711541522478
 31
0.0
  0
LINE
  5
72
330
6F
100
AcDbEntity
  8
Predefinito
 62
     0
370
    -2
100
AcDbLine
 10
1138.999434556908
 20
3600.711541522478
 30
0.0
 11
1138.999434556908
 21
3577.711541522478
 31
0.0
  0
SOLID
  5
73
330
6F
100
AcDbEntity
  8
Predefinito
 62
     0
100
AcDbTrace
 10
1140.666101223574
 20
3600.711541522478
 30
0.0
 11
1137.332767890241
 21
3600.711541522478
 31
0.0
 12
1138.999434556908
 22
3610.711541522478
 32
0.0
 13
1138.999434556908
 23
3610.711541522478
 33
0.0
  0
SOLID
  5
74
330
6F
100
AcDbEntity
  8
Predefinito
 62
     0
100
AcDbTrace
 10
1137.332767890241
 20
3577.711541522478
 30
0.0
 11
1140.666101223574
 21
3577.711541522478
 31
0.0
 12
1138.999434556908
 22
3567.711541522478
 32
0.0
 13
1138.999434556908
 23
3567.711541522478
 33
0.0
  0
MTEXT
  5
75
330
6F
100
AcDbEntity
  8
Predefinito
 62
     0
100
AcDbMText
 10
1132.994434556907
 20
3589.211541522478
 30
0.0
 40
10.0
 41
0.0
 71
     5
 72
     1
  1
\A1;43.00
  7
Predefinito
 11
0.0
 21
1.0
 31
0.0
 73
     1
 44
1.0
  0
POINT
  5
76
330
6F
100
AcDbEntity
  8
Defpoints
 62
     0
100
AcDbPoint
 10
1227.999434556908
 20
3610.711541522478
 30
0.0
  0
POINT
  5
77
330
6F
100
AcDbEntity
  8
Defpoints
 62
     0
100
AcDbPoint
 10
1202.999434556908
 20
3567.711541522478
 30
0.0
  0
POINT
  5
78
330
6F
100
AcDbEntity
  8
Defpoints
 62
     0
100
AcDbPoint
 10
1138.999434556908
 20
3567.711541522478
 30
0.0
  0
ENDBLK
  5
7A
330
6F
100
AcDbEntity
  8
0
100
AcDbBlockEnd
  0
BLOCK
  5
86
330
7C
100
AcDbEntity
  8
0
100
AcDbBlockBegin
  2
*D3
 70
     1
 10
0.0
 20
0.0
 30
0.0
  3
*D3
  1

  0
LINE
  5
7D
330
7C
100
AcDbEntity
  8
Predefinito
 62
     0
370
    -2
100
AcDbLine
 10
1203.030229595212
 20
3582.711541522478
 30
0.0
 11
1203.030229595212
 21
3670.711541522478
 31
0.0
  0
LINE
  5
7E
330
7C
100
AcDbEntity
  8
Predefinito
 62
     0
370
    -2
100
AcDbLine
 10
1452.999434556908
 20
3582.711541522478
 30
0.0
 11
1452.999434556908
 21
3670.711541522478
 31
0.0
  0
LINE
  5
7F
330
7C
100
AcDbEntity
  8
Predefinito
 62
     0
370
    -2
100
AcDbLine
 10
1213.030229595212
 20
3665.711541522478
 30
0.0
 11
1442.999434556908
 21
3665.711541522478
 31
0.0
  0
SOLID
  5
80
330
7C
100
AcDbEntity
  8
Predefinito
 62
     0
100
AcDbTrace
 10
1213.030229595212
 20
3667.378208189145
 30
0.0
 11
1213.030229595212
 21
3664.044874855811
 31
0.0
 12
1203.030229595212
 22
3665.711541522478
 32
0.0
 13
1203.030229595212
 23
3665.711541522478
 33
0.0
  0
SOLID
  5
81
330
7C
100
AcDbEntity
  8
Predefinito
 62
     0
100
AcDbTrace
 10
1442.999434556908
 20
3664.044874855811
 30
0.0
 11
1442.999434556908
 21
3667.378208189145
 31
0.0
 12
1452.999434556908
 22
3665.711541522478
 32
0.0
 13
1452.999434556908
 23
3665.711541522478
 33
0.0
  0
MTEXT
  5
82
330
7C
100
AcDbEntity
  8
Predefinito
 62
     0
100
AcDbMText
 10
1328.01483207606
 20
3671.716541522478
 30
0.0
 40
10.0
 41
0.0
 71
     5
 72
     1
  1
\A1;250
  7
Predefinito
 73
     1
 44
1.0
  0
POINT
  5
83
330
7C
100
AcDbEntity
  8
Defpoints
 62
     0
100
AcDbPoint
 10
1203.030229595212
 20
3577.711541522478
 30
0.0
  0
POINT
  5
84
330
7C
100
AcDbEntity
  8
Defpoints
 62
     0
100
AcDbPoint
 10
1452.999434556908
 20
3577.711541522478
 30
0.0
  0
POINT
  5
85
330
7C
100
AcDbEntity
  8
Defpoints
 62
     0
100
AcDbPoint
 10
1452.999434556908
 20
3665.711541522478
 30
0.0
  0
ENDBLK
  5
87
330
7C
100
AcDbEntity
  8
0
100
AcDbBlockEnd
  0
BLOCK
  5
93
330
89
100
AcDbEntity
  8
0
100
AcDbBlockBegin
  2
*D4
 70
     1
 10
0.0
 20
0.0
 30
0.0
  3
*D4
  1

  0
LINE
  5
8A
330
89
100
AcDbEntity
  8
Predefinito
 62
     0
370
    -2
100
AcDbLine
 10
1276.00308853975
 20
2910.15270913265
 30
0.0
 11
863.0030885397505
 21
2910.15270913265
 31
0.0
  0
LINE
  5
8B
330
89
100
AcDbEntity
  8
Predefinito
 62
     0
370
    -2
100
AcDbLine
 10
1322.992333002308
 20
2534.000000078512
 30
0.0
 11
863.0030885397505
 21
2534.000000078512
 31
0.0
  0
LINE
  5
8C
330
89
100
AcDbEntity
  8
Predefinito
 62
     0
370
    -2
100
AcDbLine
 10
868.0030885397505
 20
2900.15270913265
 30
0.0
 11
868.0030885397505
 21
2544.000000078512
 31
0.0
  0
SOLID
  5
8D
330
89
100
AcDbEntity
  8
Predefinito
 62
     0
100
AcDbTrace
 10
869.6697552064171
 20
2900.15270913265
 30
0.0
 11
866.3364218730839
 21
2900.15270913265
 31
0.0
 12
868.0030885397505
 22
2910.15270913265
 32
0.0
 13
868.0030885397505
 23
2910.15270913265
 33
0.0
  0
SOLID
  5
8E
330
89
100
AcDbEntity
  8
Predefinito
 62
     0
100
AcDbTrace
 10
866.3364218730839
 20
2544.000000078512
 30
0.0
 11
869.6697552064171
 21
2544.000000078512
 31
0.0
 12
868.0030885397505
 22
2534.000000078512
 32
0.0
 13
868.0030885397505
 23
2534.000000078512
 33
0.0
  0
MTEXT
  5
8F
330
89
100
AcDbEntity
  8
Predefinito
 62
     0
100
AcDbMText
 10
861.9980885397505
 20
2722.076354605581
 30
0.0
 40
10.0
 41
0.0
 71
     5
 72
     1
  1
\A1;375
  7
Predefinito
 11
0.0
 21
1.0
 31
0.0
 73
     1
 44
1.0
  0
POINT
  5
90
330
89
100
AcDbEntity
  8
Defpoints
 62
     0
100
AcDbPoint
 10
1281.00308853975
 20
2910.15270913265
 30
0.0
  0
POINT
  5
91
330
89
100
AcDbEntity
  8
Defpoints
 62
     0
100
AcDbPoint
 10
1327.992333002308
 20
2534.000000078512
 30
0.0
  0
POINT
  5
92
330
89
100
AcDbEntity
  8
Defpoints
 62
     0
100
AcDbPoint
 10
868.0030885397505
 20
2534.000000078512
 30
0.0
  0
ENDBLK
  5
94
330
89
100
AcDbEntity
  8
0
100
AcDbBlockEnd
  0
ENDSEC
  0
SECTION
  2
ENTITIES
  0
DIMENSION
  5
3C
330
1F
100
AcDbEntity
  8
Predefinito
100
AcDbDimension
  2
*D1
 10
1602.998127000892
 20
1794.99950372348
 30
0.0
 11
1327.998623441449
 21
1801.00450372348
 31
0.0
 70
    32
  1
550
 71
     5
 42
549.9990071188856
  3
Stile di quota 01
100
AcDbAlignedDimension
 13
1052.999119882006
 23
2154.99950372348
 33
0.0
 14
1602.998127000892
 24
2154.999503395597
 34
0.0
100
AcDbRotatedDimension
1001
ACAD
1000
DSTYLE
1002
{
1070
   279
1070
     1
1002
}
  0
DIMENSION
  5
6E
330
1F
100
AcDbEntity
  8
Predefinito
100
AcDbDimension
  2
*D2
 10
1138.999434556908
 20
3567.711541522478
 30
0.0
 11
1132.994434556907
 21
3589.211541522478
 31
0.0
 70
    32
  1
<>
 71
     5
 42
43.0
  3
Stile di quota 01
100
AcDbAlignedDimension
 13
1227.999434556908
 23
3610.711541522478
 33
0.0
 14
1202.999434556908
 24
3567.711541522478
 34
0.0
 50
90.0
100
AcDbRotatedDimension
1001
ACAD
1000
DSTYLE
1002
{
1070
   279
1070
     1
1002
}
  0
DIMENSION
  5
7B
330
1F
100
AcDbEntity
  8
Predefinito
100
AcDbDimension
  2
*D3
 10
1452.999434556908
 20
3665.711541522478
 30
0.0
 11
1328.01483207606
 21
3671.716541522478
 31
0.0
 70
    32
  1
250
 71
     5
 42
249.9692049616956
  3
Stile di quota 01
100
AcDbAlignedDimension
 13
1203.030229595212
 23
3577.711541522478
 33
0.0
 14
1452.999434556908
 24
3577.711541522478
 34
0.0
100
AcDbRotatedDimension
1001
ACAD
1000
DSTYLE
1002
{
1070
   279
1070
     1
1002
}
  0
DIMENSION
  5
88
330
1F
100
AcDbEntity
  8
Predefinito
100
AcDbDimension
  2
*D4
 10
868.0030885397505
 20
2534.000000078512
 30
0.0
 11
861.9980885397505
 21
2722.076354605581
 31
0.0
 70
    32
  1
375
 71
     5
 42
376.1527090541376
  3
Stile di quota 01
100
AcDbAlignedDimension
 13
1281.00308853975
 23
2910.15270913265
 33
0.0
 14
1327.992333002308
 24
2534.000000078512
 34
0.0
 50
90.0
100
AcDbRotatedDimension
1001
ACAD
1000
DSTYLE
1002
{
1070
   279
1070
     1
1002
}
  0
SPLINE
  5
96
330
1F
100
AcDbEntity
  8
Linee visibili 2D
100
AcDbSpline
210
0.0
220
0.0
230
1.0
 70
    15
 71
     2
 72
    12
 73
     9
 74
     0
 42
0.0000000001
 43
0.0000000001
 40
0.0
 40
0.0
 40
0.0
 40
431.9682100615927
 40
431.9682100615927
 40
863.9364201231855
 40
863.9364201231855
 40
1295.904630184778
 40
1295.904630184778
 40
1727.872840246371
 40
1727.872840246371
 40
1727.872840246371
 10
1327.998627763505
 20
1880.0
 30
0.0
 41
1.0
 10
1052.999124204062
 20
1879.999995677944
 30
0.0
 41
0.7071067811865476
 10
1052.999119882006
 20
2154.999499237387
 30
0.0
 41
1.0
 10
1052.99911555995
 20
2429.999002796829
 30
0.0
 41
0.7071067811865476
 10
1327.998619119393
 20
2429.999007118885
 30
0.0
 41
1.0
 10
1602.998122678835
 20
2429.999011440942
 30
0.0
 41
0.7071067811865476
 10
1602.998127000892
 20
2154.999507881499
 30
0.0
 41
1.0
 10
1602.998131322948
 20
1880.000004322056
 30
0.0
 41
0.7071067811865476
 10
1327.998627763505
 20
1880.0
 30
0.0
 41
1.0
  0
SPLINE
  5
97
330
1F
100
AcDbEntity
  8
Linee visibili 2D
100
AcDbSpline
210
0.0
220
0.0
230
1.0
 70
    12
 71
     2
 72
    12
 73
     9
 74
     0
 42
0.0000000001
 43
0.0000000001
 40
0.0
 40
0.0
 40
0.0
 40
164.0705817978169
 40
164.0705817978169
 40
328.1411635956337
 40
328.1411635956337
 40
492.2117453934505
 40
492.2117453934505
 40
656.2823271912674
 40
656.2823271912674
 40
656.2823271912674
 10
1232.460144147032
 20
2014.385121336922
 30
0.0
 41
1.0
 10
1158.796542807238
 20
2064.434848917685
 30
0.0
 41
0.885809604649412
 10
1158.005354985536
 20
2153.489188593455
 30
0.0
 41
1.0
 10
1157.214167163833
 20
2242.543528269225
 30
0.0
 41
0.885809604649412
 10
1229.976894656733
 20
2293.89415515002
 30
0.0
 41
1.0
 10
1302.739622149633
 20
2345.244782030815
 30
0.0
 41
0.885809604649412
 10
1386.380970740954
 20
2314.660044021774
 30
0.0
 41
1.0
 10
1470.022319332275
 20
2284.075306012733
 30
0.0
 41
0.885809604649412
 10
1492.496527239507
 20
2197.899837506903
 30
0.0
 41
1.0
  0
SPLINE
  5
98
330
1F
100
AcDbEntity
  8
Linee visibili 2D
100
AcDbSpline
210
0.0
220
0.0
230
1.0
 70
    12
 71
     2
 72
     6
 73
     3
 74
     0
 42
0.0000000001
 43
0.0000000001
 40
0.0
 40
0.0
 40
0.0
 40
12.08382887711277
 40
12.08382887711277
 40
12.08382887711277
 10
1290.758892221794
 20
1989.128464910307
 30
0.0
 41
1.0
 10
1284.861245112793
 20
1990.452566197655
 30
0.0
 41
0.9993686369617534
 10
1279.072516769254
 20
1992.192137928334
 30
0.0
 41
1.0
  0
SPLINE
  5
99
330
1F
100
AcDbEntity
  8
Linee visibili 2D
100
AcDbSpline
210
0.0
220
0.0
230
1.0
 70
    12
 71
     2
 72
     6
 73
     3
 74
     0
 42
0.0000000001
 43
0.0000000001
 40
0.0
 40
0.0
 40
0.0
 40
53.93374971010435
 40
53.93374971010435
 40
53.93374971010435
 10
1463.648275279557
 20
2052.534003723495
 30
0.0
 41
1.0
 10
1447.256559742983
 20
2030.833793701796
 30
0.0
 41
0.987445233601314
 10
1424.913318202663
 20
2015.330019622924
 30
0.0
 41
1.0
  0
SPLINE
  5
9A
330
1F
100
AcDbEntity
  8
Linee visibili 2D
100
AcDbSpline
210
0.0
220
0.0
230
1.0
 70
    12
 71
     2
 72
     6
 73
     3
 74
     0
 42
0.0000000001
 43
0.0000000001
 40
0.0
 40
0.0
 40
0.0
 40
11.32660652505371
 40
11.32660652505371
 40
11.32660652505371
 10
1497.998627763505
 20
2154.99950372348
 30
0.0
 41
1.0
 10
1497.998602491629
 20
2149.334105489078
 30
0.0
 41
0.9994454167355686
 10
1497.621476283204
 20
2143.681273192086
 30
0.0
 41
1.0
  0
SPLINE
  5
9B
330
1F
100
AcDbEntity
  8
Linee visibili 2D
100
AcDbSpline
210
0.0
220
0.0
230
1.0
 70
    12
 71
     2
 72
     6
 73
     3
 74
     0
 42
0.0000000001
 43
0.0000000001
 40
0.0
 40
0.0
 40
0.0
 40
43.3692359758306
 40
43.3692359758306
 40
43.3692359758306
 10
1492.496534222371
 20
2197.899839315533
 30
0.0
 41
1.0
 10
1497.998597988566
 20
2176.802497497073
 30
0.0
 41
0.9918758575356321
 10
1497.998627763505
 20
2154.99950372348
 30
0.0
 41
1.0
  0
SPLINE
  5
9C
330
1F
100
AcDbEntity
  8
Linee visibili 2D
100
AcDbSpline
210
0.0
220
0.0
230
1.0
 70
    12
 71
     2
 72
     6
 73
     3
 74
     0
 42
0.0000000001
 43
0.0000000001
 40
0.0
 40
0.0
 40
0.0
 40
51.8264383587386
 40
51.8264383587386
 40
51.8264383587386
 10
1279.07251913046
 20
1992.192145492881
 30
0.0
 41
1.0
 10
1254.061672823957
 20
1999.708302627792
 30
0.0
 41
0.9884049353398685
 10
1232.460166222044
 20
2014.385153910395
 30
0.0
 41
1.0
  0
SPLINE
  5
9D
330
1F
100
AcDbEntity
  8
Linee visibili 2D
100
AcDbSpline
210
0.0
220
0.0
230
1.0
 70
    12
 71
     2
 72
     6
 73
     3
 74
     0
 42
0.0000000001
 43
0.0000000001
 40
0.0
 40
0.0
 40
0.0
 40
140.6680205674218
 40
140.6680205674218
 40
140.6680205674218
 10
1424.913298899804
 20
2015.330047441113
 30
0.0
 41
1.0
 10
1363.58828697773
 20
1972.777530784159
 30
0.0
 41
0.915627921404542
 10
1290.758896005066
 20
1989.128480959416
 30
0.0
 41
1.0
  0
SPLINE
  5
9E
330
1F
100
AcDbEntity
  8
Linee visibili 2D
100
AcDbSpline
210
0.0
220
0.0
230
1.0
 70
    12
 71
     2
 72
     6
 73
     3
 74
     0
 42
0.0000000001
 43
0.0000000001
 40
0.0
 40
0.0
 40
0.0
 40
98.65119139828784
 40
98.65119139828784
 40
98.65119139828784
 10
1497.621437746422
 20
2143.681275766667
 30
0.0
 41
1.0
 10
1494.24206022116
 20
2093.035850629766
 30
0.0
 41
0.9582009093226072
 10
1463.648262228128
 20
2052.534013583561
 30
0.0
 41
1.0
  0
SPLINE
  5
A0
330
1F
100
AcDbEntity
  8
Linee visibili 2D - Tangent
100
AcDbSpline
210
0.0
220
0.0
230
1.0
 70
    12
 71
     2
 72
     8
 73
     5
 74
     0
 42
0.0000000001
 43
0.0000000001
 40
0.0
 40
0.0
 40
0.0
 40
425.1854759820218
 40
425.1854759820218
 40
850.3709519640436
 40
850.3709519640436
 40
850.3709519640436
 10
1327.998627763505
 20
2425.680984657157
 30
0.0
 41
1.0
 10
1057.317146829829
 20
2425.680984657156
 30
0.0
 41
0.7071067811865476
 10
1057.317146829829
 20
2154.99950372348
 30
0.0
 41
1.0
 10
1057.317146829829
 20
1884.318022789804
 30
0.0
 41
0.7071067811865476
 10
1327.998627763505
 20
1884.318022789804
 30
0.0
 41
1.0
  0
SPLINE
  5
A1
330
1F
100
AcDbEntity
  8
Linee visibili 2D - Tangent
100
AcDbSpline
210
0.0
220
0.0
230
1.0
 70
    12
 71
     2
 72
     8
 73
     5
 74
     0
 42
0.0000000001
 43
0.0000000001
 40
0.0
 40
0.0
 40
0.0
 40
425.1854759820218
 40
425.1854759820218
 40
850.3709519640438
 40
850.3709519640438
 40
850.3709519640438
 10
1327.998627763505
 20
1884.318022789804
 30
0.0
 41
1.0
 10
1598.680108697182
 20
1884.318022789804
 30
0.0
 41
0.7071067811865477
 10
1598.680108697182
 20
2154.99950372348
 30
0.0
 41
1.0
 10
1598.680108697181
 20
2425.680984657157
 30
0.0
 41
0.7071067811865472
 10
1327.998627763505
 20
2425.680984657157
 30
0.0
 41
1.0
  0
SPLINE
  5
A2
330
1F
100
AcDbEntity
  8
Linee visibili 2D - Tangent
100
AcDbSpline
210
0.0
220
0.0
230
1.0
 70
    12
 71
     2
 72
     8
 73
     5
 74
     0
 42
0.0000000001
 43
0.0000000001
 40
0.0
 40
0.0
 40
0.0
 40
284.9757826508978
 40
284.9757826508978
 40
569.9515653017958
 40
569.9515653017958
 40
569.9515653017958
 10
1327.998627763505
 20
2336.420721604968
 30
0.0
 41
1.0
 10
1146.577409882017
 20
2336.420721604968
 30
0.0
 41
0.7071067811865474
 10
1146.577409882017
 20
2154.99950372348
 30
0.0
 41
1.0
 10
1146.577409882017
 20
1973.578285841992
 30
0.0
 41
0.7071067811865474
 10
1327.998627763505
 20
1973.578285841992
 30
0.0
 41
1.0
  0
SPLINE
  5
A3
330
1F
100
AcDbEntity
  8
Linee visibili 2D - Tangent
100
AcDbSpline
210
0.0
220
0.0
230
1.0
 70
    12
 71
     2
 72
     8
 73
     5
 74
     0
 42
0.0000000001
 43
0.0000000001
 40
0.0
 40
0.0
 40
0.0
 40
284.9757826508978
 40
284.9757826508978
 40
569.9515653017957
 40
569.9515653017957
 40
569.9515653017957
 10
1327.998627763505
 20
1973.578285841992
 30
0.0
 41
1.0
 10
1509.419845644993
 20
1973.578285841992
 30
0.0
 41
0.7071067811865476
 10
1509.419845644993
 20
2154.99950372348
 30
0.0
 41
1.0
 10
1509.419845644993
 20
2336.420721604968
 30
0.0
 41
0.7071067811865474
 10
1327.998627763505
 20
2336.420721604968
 30
0.0
 41
1.0
  0
SPLINE
  5
A4
330
1F
100
AcDbEntity
  8
Linee visibili 2D - Tangent
100
AcDbSpline
210
0.0
220
0.0
230
1.0
 70
    12
 71
     2
 72
     8
 73
     5
 74
     0
 42
0.0000000001
 43
0.0000000001
 40
0.0
 40
0.0
 40
0.0
 40
270.5535246714655
 40
270.5535246714655
 40
541.1070493429311
 40
541.1070493429311
 40
541.1070493429311
 10
1327.998627763505
 20
1982.759780433885
 30
0.0
 41
1.0
 10
1155.75890447391
 20
1982.759780433885
 30
0.0
 41
0.7071067811865478
 10
1155.75890447391
 20
2154.99950372348
 30
0.0
 41
1.0
 10
1155.75890447391
 20
2327.239227013075
 30
0.0
 41
0.7071067811865474
 10
1327.998627763505
 20
2327.239227013075
 30
0.0
 41
1.0
  0
SPLINE
  5
A5
330
1F
100
AcDbEntity
  8
Linee visibili 2D - Tangent
100
AcDbSpline
210
0.0
220
0.0
230
1.0
 70
    12
 71
     2
 72
     8
 73
     5
 74
     0
 42
0.0000000001
 43
0.0000000001
 40
0.0
 40
0.0
 40
0.0
 40
270.5535246714657
 40
270.5535246714657
 40
541.1070493429311
 40
541.1070493429311
 40
541.1070493429311
 10
1327.998627763505
 20
2327.239227013075
 30
0.0
 41
1.0
 10
1500.2383510531
 20
2327.239227013075
 30
0.0
 41
0.7071067811865471
 10
1500.2383510531
 20
2154.99950372348
 30
0.0
 41
1.0
 10
1500.2383510531
 20
1982.759780433885
 30
0.0
 41
0.7071067811865481
 10
1327.998627763505
 20
1982.759780433885
 30
0.0
 41
1.0
  0
SPLINE
  5
A6
330
1F
100
AcDbEntity
  8
Linee visibili 2D - Tangent
100
AcDbSpline
210
0.0
220
0.0
230
1.0
 70
    12
 71
     2
 72
     8
 73
     5
 74
     0
 42
0.0000000001
 43
0.0000000001
 40
0.0
 40
0.0
 40
0.0
 40
268.8652303743735
 40
268.8652303743735
 40
537.7304607487472
 40
537.7304607487472
 40
537.7304607487472
 10
1327.998627763505
 20
2326.164425481971
 30
0.0
 41
1.0
 10
1499.163549521996
 20
2326.164425481971
 30
0.0
 41
0.7071067811865474
 10
1499.163549521996
 20
2154.99950372348
 30
0.0
 41
1.0
 10
1499.163549521996
 20
1983.834581964989
 30
0.0
 41
0.7071067811865474
 10
1327.998627763505
 20
1983.834581964989
 30
0.0
 41
1.0
  0
SPLINE
  5
A7
330
1F
100
AcDbEntity
  8
Linee visibili 2D - Tangent
100
AcDbSpline
210
0.0
220
0.0
230
1.0
 70
    12
 71
     2
 72
     8
 73
     5
 74
     0
 42
0.0000000001
 43
0.0000000001
 40
0.0
 40
0.0
 40
0.0
 40
268.8652303743737
 40
268.8652303743737
 40
537.7304607487472
 40
537.7304607487472
 40
537.7304607487472
 10
1327.998627763505
 20
1983.834581964989
 30
0.0
 41
1.0
 10
1156.833706005014
 20
1983.834581964989
 30
0.0
 41
0.7071067811865479
 10
1156.833706005014
 20
2154.99950372348
 30
0.0
 41
1.0
 10
1156.833706005014
 20
2326.164425481971
 30
0.0
 41
0.7071067811865474
 10
1327.998627763505
 20
2326.164425481971
 30
0.0
 41
1.0
  0
SPLINE
  5
A8
330
1F
100
AcDbEntity
  8
Linee visibili 2D
100
AcDbSpline
210
0.0
220
0.0
230
1.0
 70
    15
 71
     2
 72
    12
 73
     9
 74
     0
 42
0.0000000001
 43
0.0000000001
 40
0.0
 40
0.0
 40
0.0
 40
196.3495408493621
 40
196.3495408493621
 40
392.6990816987242
 40
392.6990816987242
 40
589.0486225480863
 40
589.0486225480863
 40
785.3981633974486
 40
785.3981633974486
 40
785.3981633974486
 10
1452.998627763507
 20
2154.99950372348
 30
0.0
 41
1.0
 10
1452.998627763507
 20
2029.99950372348
 30
0.0
 41
0.7071067811865472
 10
1327.998627763507
 20
2029.99950372348
 30
0.0
 41
1.0
 10
1202.998627763507
 20
2029.99950372348
 30
0.0
 41
0.7071067811865479
 10
1202.998627763507
 20
2154.99950372348
 30
0.0
 41
1.0
 10
1202.998627763507
 20
2279.99950372348
 30
0.0
 41
0.7071067811865481
 10
1327.998627763507
 20
2279.99950372348
 30
0.0
 41
1.0
 10
1452.998627763507
 20
2279.99950372348
 30
0.0
 41
0.7071067811865469
 10
1452.998627763507
 20
2154.99950372348
 30
0.0
 41
1.0
  0
SPLINE
  5
A9
330
1F
100
AcDbEntity
  8
Linee visibili 2D
100
AcDbSpline
210
0.0
220
0.0
230
1.0
 70
    15
 71
     2
 72
    12
 73
     9
 74
     0
 42
0.0000000001
 43
0.0000000001
 40
0.0
 40
0.0
 40
0.0
 40
157.0796326794896
 40
157.0796326794896
 40
314.1592653589793
 40
314.1592653589793
 40
471.2388980384691
 40
471.2388980384691
 40
628.3185307179588
 40
628.3185307179588
 40
628.3185307179588
 10
1427.998627763507
 20
2154.99950372348
 30
0.0
 41
1.0
 10
1427.998627763507
 20
2054.99950372348
 30
0.0
 41
0.7071067811865479
 10
1327.998627763507
 20
2054.99950372348
 30
0.0
 41
1.0
 10
1227.998627763507
 20
2054.99950372348
 30
0.0
 41
0.7071067811865476
 10
1227.998627763507
 20
2154.99950372348
 30
0.0
 41
1.0
 10
1227.998627763507
 20
2254.99950372348
 30
0.0
 41
0.7071067811865474
 10
1327.998627763507
 20
2254.99950372348
 30
0.0
 41
1.0
 10
1427.998627763507
 20
2254.99950372348
 30
0.0
 41
0.7071067811865476
 10
1427.998627763507
 20
2154.99950372348
 30
0.0
 41
1.0
  0
SPLINE
  5
AA
330
1F
100
AcDbEntity
  8
Linee visibili 2D
100
AcDbSpline
210
0.0
220
0.0
230
1.0
 70
    24
 71
     2
 72
     6
 73
     3
 74
     0
 42
0.0000000001
 43
0.0000000001
 40
0.0
 40
0.0
 40
0.0
 40
0.6766868846438536
 40
0.6766868846438536
 40
0.6766868846438536
 10
2120.550377284527
 20
2636.274431562355
 30
0.0
 10
2120.327758329052
 20
2636.529219877679
 30
0.0
 10
2120.105139373577
 20
2636.784008193003
 30
0.0
  0
SPLINE
  5
AB
330
1F
100
AcDbEntity
  8
Linee visibili 2D
100
AcDbSpline
210
0.0
220
0.0
230
1.0
 70
    24
 71
     2
 72
     6
 73
     3
 74
     0
 42
0.0000000001
 43
0.0000000001
 40
0.0
 40
0.0
 40
0.0
 40
0.6758873741450139
 40
0.6758873741450139
 40
0.6758873741450139
 10
2192.88159981486
 20
2627.114628528915
 30
0.0
 10
2192.600236187472
 20
2626.92743759747
 30
0.0
 10
2192.318872560084
 20
2626.740246666025
 30
0.0
  0
SPLINE
  5
AC
330
1F
100
AcDbEntity
  8
Linee visibili 2D
100
AcDbSpline
210
0.0
220
0.0
230
1.0
 70
    24
 71
     2
 72
     6
 73
     3
 74
     0
 42
0.0000000001
 43
0.0000000001
 40
0.0
 40
0.0
 40
0.0
 40
236.5122245423275
 40
236.5122245423275
 40
236.5122245423275
 10
2239.392393621398
 20
2859.109197504561
 30
0.0
 10
2216.160169942705
 20
2743.157604706389
 30
0.0
 10
2192.927946264012
 20
2627.206011908216
 30
0.0
  0
SPLINE
  5
AD
330
1F
100
AcDbEntity
  8
Linee visibili 2D
100
AcDbSpline
210
0.0
220
0.0
230
1.0
 70
    24
 71
     2
 72
     6
 73
     3
 74
     0
 42
0.0000000001
 43
0.0000000001
 40
0.0
 40
0.0
 40
0.0
 40
0.6918860691172117
 40
0.6918860691172117
 40
0.6918860691172117
 10
2011.668030187258
 20
2626.748207877312
 30
0.0
 10
2011.380006499299
 20
2626.939829740193
 30
0.0
 10
2011.09198281134
 20
2627.131451603075
 30
0.0
  0
SPLINE
  5
AE
330
1F
100
AcDbEntity
  8
Linee visibili 2D
100
AcDbSpline
210
0.0
220
0.0
230
1.0
 70
    24
 71
     2
 72
     6
 73
     3
 74
     0
 42
0.0000000001
 43
0.0000000001
 40
0.0
 40
0.0
 40
0.0
 40
0.6421835930949789
 40
0.6421835930949789
 40
0.6421835930949789
 10
2183.060736178757
 20
2627.248802732853
 30
0.0
 10
2182.796815683761
 20
2627.065920491695
 30
0.0
 10
2182.532895188765
 20
2626.883038250536
 30
0.0
  0
SPLINE
  5
AF
330
1F
100
AcDbEntity
  8
Linee visibili 2D
100
AcDbSpline
210
0.0
220
0.0
230
1.0
 70
    24
 71
     2
 72
     6
 73
     3
 74
     0
 42
0.0000000001
 43
0.0000000001
 40
0.0
 40
0.0
 40
0.0
 40
0.004163704466644
 40
0.004163704466644
 40
0.004163704466644
 10
2183.108051070826
 20
2627.281589324519
 30
0.0
 10
2183.106339898264
 20
2627.280403576996
 30
0.0
 10
2183.104628725703
 20
2627.279217829474
 30
0.0
  0
SPLINE
  5
B0
330
1F
100
AcDbEntity
  8
Linee visibili 2D
100
AcDbSpline
210
0.0
220
0.0
230
1.0
 70
    24
 71
     2
 72
     6
 73
     3
 74
     0
 42
0.0000000001
 43
0.0000000001
 40
0.0
 40
0.0
 40
0.0
 40
0.5660209673843234
 40
0.5660209673843234
 40
0.5660209673843234
 10
2163.889783948898
 20
2630.199362246698
 30
0.0
 10
2163.726264844641
 20
2630.430352368614
 30
0.0
 10
2163.562745740384
 20
2630.661342490529
 30
0.0
  0
SPLINE
  5
B1
330
1F
100
AcDbEntity
  8
Linee visibili 2D
100
AcDbSpline
210
0.0
220
0.0
230
1.0
 70
    24
 71
     2
 72
     6
 73
     3
 74
     0
 42
0.0000000001
 43
0.0000000001
 40
0.0
 40
0.0
 40
0.0
 40
235.3074320682284
 40
235.3074320682284
 40
235.3074320682284
 10
2224.006182996266
 20
2859.109197504566
 30
0.0
 10
2203.590676875034
 20
2743.240288791098
 30
0.0
 10
2183.175170753802
 20
2627.371380077631
 30
0.0
  0
SPLINE
  5
B2
330
1F
100
AcDbEntity
  8
Linee visibili 2D
100
AcDbSpline
210
0.0
220
0.0
230
1.0
 70
    24
 71
     2
 72
     6
 73
     3
 74
     0
 42
0.0000000001
 43
0.0000000001
 40
0.0
 40
0.0
 40
0.0
 40
0.5463755158135783
 40
0.5463755158135783
 40
0.5463755158135783
 10
2040.424772533695
 20
2630.645308083626
 30
0.0
 10
2040.266928849306
 20
2630.422335165162
 30
0.0
 10
2040.109085164916
 20
2630.199362246698
 30
0.0
  0
SPLINE
  5
B3
330
1F
100
AcDbEntity
  8
Linee visibili 2D
100
AcDbSpline
210
0.0
220
0.0
230
1.0
 70
    24
 71
     2
 72
     6
 73
     3
 74
     0
 42
0.0000000001
 43
0.0000000001
 40
0.0
 40
0.0
 40
0.0
 40
0.6581079104443517
 40
0.6581079104443517
 40
0.6581079104443517
 10
2021.46597392505
 20
2626.883038250536
 30
0.0
 10
2021.195508956226
 20
2627.070455448484
 30
0.0
 10
2020.925043987403
 20
2627.257872646432
 30
0.0
  0
SPLINE
  5
B4
330
1F
100
AcDbEntity
  8
Linee visibili 2D
100
AcDbSpline
210
0.0
220
0.0
230
1.0
 70
    24
 71
     2
 72
     6
 73
     3
 74
     0
 42
0.0000000001
 43
0.0000000001
 40
0.0
 40
0.0
 40
0.0
 40
231.7460013897357
 40
231.7460013897357
 40
231.7460013897357
 10
2000.30075967075
 20
2859.109197504566
 30
0.0
 10
2020.407272535041
 20
2744.993990671862
 30
0.0
 10
2040.513785399332
 20
2630.878783839157
 30
0.0
  0
SPLINE
  5
B5
330
1F
100
AcDbEntity
  8
Linee visibili 2D
100
AcDbSpline
210
0.0
220
0.0
230
1.0
 70
    24
 71
     2
 72
     6
 73
     3
 74
     0
 42
0.0000000001
 43
0.0000000001
 40
0.0
 40
0.0
 40
0.0
 40
0.6952323048296586
 40
0.6952323048296586
 40
0.6952323048296586
 10
2083.892405296681
 20
2636.782492361875
 30
0.0
 10
2083.663685200244
 20
2636.520721265484
 30
0.0
 10
2083.434965103807
 20
2636.258950169094
 30
0.0
  0
SPLINE
  5
B6
330
1F
100
AcDbEntity
  8
Linee visibili 2D
100
AcDbSpline
210
0.0
220
0.0
230
1.0
 70
    24
 71
     2
 72
     6
 73
     3
 74
     0
 42
0.0000000001
 43
0.0000000001
 40
0.0
 40
0.0
 40
0.0
 40
222.8184450297028
 40
222.8184450297028
 40
222.8184450297028
 10
2068.754510982621
 20
2859.109197504566
 30
0.0
 10
2076.330328609522
 20
2747.957850915118
 30
0.0
 10
2083.906146236422
 20
2636.80650432567
 30
0.0
  0
SPLINE
  5
B7
330
1F
100
AcDbEntity
  8
Linee visibili 2D
100
AcDbSpline
210
0.0
220
0.0
230
1.0
 70
    24
 71
     2
 72
     6
 73
     3
 74
     0
 42
0.0000000001
 43
0.0000000001
 40
0.0
 40
0.0
 40
0.0
 40
0.1988227010927871
 40
0.1988227010927871
 40
0.1988227010927871
 10
2083.355654280751
 20
2629.108051862752
 30
0.0
 10
2083.289055471284
 20
2629.03424661094
 30
0.0
 10
2083.222456661817
 20
2628.960441359128
 30
0.0
  0
SPLINE
  5
B8
330
1F
100
AcDbEntity
  8
Linee visibili 2D
100
AcDbSpline
210
0.0
220
0.0
230
1.0
 70
    24
 71
     2
 72
     6
 73
     3
 74
     0
 42
0.0000000001
 43
0.0000000001
 40
0.0
 40
0.0
 40
0.0
 40
0.5362876825392268
 40
0.5362876825392268
 40
0.5362876825392268
 10
2064.584562842515
 20
2627.630659532731
 30
0.0
 10
2064.379084214653
 20
2627.802937369676
 30
0.0
 10
2064.173605586791
 20
2627.975215206622
 30
0.0
  0
SPLINE
  5
B9
330
1F
100
AcDbEntity
  8
Linee visibili 2D
100
AcDbSpline
210
0.0
220
0.0
230
1.0
 70
    24
 71
     2
 72
     6
 73
     3
 74
     0
 42
0.0000000001
 43
0.0000000001
 40
0.0
 40
0.0
 40
0.0
 40
231.219330273762
 40
231.219330273762
 40
231.219330273762
 10
2063.851703336061
 20
2628.44762939813
 30
0.0
 10
2055.826435568951
 20
2743.778413451339
 30
0.0
 10
2047.801167801841
 20
2859.109197504548
 30
0.0
  0
SPLINE
  5
BA
330
1F
100
AcDbEntity
  8
Linee visibili 2D
100
AcDbSpline
210
0.0
220
0.0
230
1.0
 70
    24
 71
     2
 72
     6
 73
     3
 74
     0
 42
0.0000000001
 43
0.0000000001
 40
0.0
 40
0.0
 40
0.0
 40
229.8229707269838
 40
229.8229707269838
 40
229.8229707269838
 10
2067.849529752372
 20
2859.109197504566
 30
0.0
 10
2075.826332024627
 20
2744.474909030509
 30
0.0
 10
2083.803134296881
 20
2629.840620556452
 30
0.0
  0
SPLINE
  5
BB
330
1F
100
AcDbEntity
  8
Linee visibili 2D
100
AcDbSpline
210
0.0
220
0.0
230
1.0
 70
    24
 71
     2
 72
     6
 73
     3
 74
     0
 42
0.0000000001
 43
0.0000000001
 40
0.0
 40
0.0
 40
0.0
 40
0.5460239028126276
 40
0.5460239028126276
 40
0.5460239028126276
 10
2039.732960687513
 20
2627.261083779255
 30
0.0
 10
2039.514537423622
 20
2627.424872678152
 30
0.0
 10
2039.296114159731
 20
2627.588661577049
 30
0.0
  0
SPLINE
  5
BC
330
1F
100
AcDbEntity
  8
Linee visibili 2D
100
AcDbSpline
210
0.0
220
0.0
230
1.0
 70
    24
 71
     2
 72
     6
 73
     3
 74
     0
 42
0.0000000001
 43
0.0000000001
 40
0.0
 40
0.0
 40
0.0
 40
0.639193290555514
 40
0.639193290555514
 40
0.639193290555514
 10
2058.885328445224
 20
2630.153722399591
 30
0.0
 10
2058.6875400969
 20
2629.902680998743
 30
0.0
 10
2058.489751748576
 20
2629.651639597894
 30
0.0
  0
SPLINE
  5
BD
330
1F
100
AcDbEntity
  8
Linee visibili 2D
100
AcDbSpline
210
0.0
220
0.0
230
1.0
 70
    24
 71
     2
 72
     6
 73
     3
 74
     0
 42
0.0000000001
 43
0.0000000001
 40
0.0
 40
0.0
 40
0.0
 40
190.8170003257066
 40
190.8170003257066
 40
190.8170003257066
 10
2033.63786849726
 20
2669.903287229698
 30
0.0
 10
2021.266014044267
 20
2764.506242367046
 30
0.0
 10
2008.894159591274
 20
2859.109197504394
 30
0.0
  0
SPLINE
  5
BE
330
1F
100
AcDbEntity
  8
Linee visibili 2D
100
AcDbSpline
210
0.0
220
0.0
230
1.0
 70
    24
 71
     2
 72
     6
 73
     3
 74
     0
 42
0.0000000001
 43
0.0000000001
 40
0.0
 40
0.0
 40
0.0
 40
1.73224880150939
 40
1.73224880150939
 40
1.73224880150939
 10
2039.13751496033
 20
2627.849542611714
 30
0.0
 10
2039.025202482866
 20
2628.708354223762
 30
0.0
 10
2038.912890005403
 20
2629.567165835811
 30
0.0
  0
SPLINE
  5
BF
330
1F
100
AcDbEntity
  8
Linee visibili 2D
100
AcDbSpline
210
0.0
220
0.0
230
1.0
 70
    24
 71
     2
 72
     6
 73
     3
 74
     0
 42
0.0000000001
 43
0.0000000001
 40
0.0
 40
0.0
 40
0.0
 40
230.5140618813771
 40
230.5140618813771
 40
230.5140618813771
 10
2029.064459773595
 20
2859.109197504566
 30
0.0
 10
2044.010121942567
 20
2744.825295035348
 30
0.0
 10
2058.955784111539
 20
2630.54139256613
 30
0.0
  0
SPLINE
  5
C0
330
1F
100
AcDbEntity
  8
Linee visibili 2D
100
AcDbSpline
210
0.0
220
0.0
230
1.0
 70
    24
 71
     2
 72
     6
 73
     3
 74
     0
 42
0.0000000001
 43
0.0000000001
 40
0.0
 40
0.0
 40
0.0
 40
0.5492167337262572
 40
0.5492167337262572
 40
0.5492167337262572
 10
2111.859523300179
 20
2635.956535578296
 30
0.0
 10
2111.664745426619
 20
2635.76296043753
 30
0.0
 10
2111.46996755306
 20
2635.569385296763
 30
0.0
  0
SPLINE
  5
C1
330
1F
100
AcDbEntity
  8
Linee visibili 2D
100
AcDbSpline
210
0.0
220
0.0
230
1.0
 70
    24
 71
     2
 72
     6
 73
     3
 74
     0
 42
0.0000000001
 43
0.0000000001
 40
0.0
 40
0.0
 40
0.0
 40
0.5492167337262572
 40
0.5492167337262572
 40
0.5492167337262572
 10
2092.528901560755
 20
2635.569385296763
 30
0.0
 10
2092.334123687195
 20
2635.76296043753
 30
0.0
 10
2092.139345813635
 20
2635.956535578296
 30
0.0
  0
SPLINE
  5
C2
330
1F
100
AcDbEntity
  8
Linee visibili 2D
100
AcDbSpline
210
0.0
220
0.0
230
1.0
 70
    24
 71
     2
 72
     6
 73
     3
 74
     0
 42
0.0000000001
 43
0.0000000001
 40
0.0
 40
0.0
 40
0.0
 40
222.9826923258151
 40
222.9826923258151
 40
222.9826923258151
 10
2091.999434556907
 20
2636.126505178751
 30
0.0
 10
2091.999434556907
 20
2747.617851341659
 30
0.0
 10
2091.999434556907
 20
2859.109197504566
 30
0.0
  0
SPLINE
  5
C3
330
1F
100
AcDbEntity
  8
Linee visibili 2D
100
AcDbSpline
210
0.0
220
0.0
230
1.0
 70
    24
 71
     2
 72
     6
 73
     3
 74
     0
 42
0.0000000001
 43
0.0000000001
 40
0.0
 40
0.0
 40
0.0
 40
222.9826923258151
 40
222.9826923258151
 40
222.9826923258151
 10
2111.999434556908
 20
2859.109197504566
 30
0.0
 10
2111.999434556908
 20
2747.617851341659
 30
0.0
 10
2111.999434556907
 20
2636.126505178751
 30
0.0
  0
SPLINE
  5
C4
330
1F
100
AcDbEntity
  8
Linee visibili 2D
100
AcDbSpline
210
0.0
220
0.0
230
1.0
 70
    24
 71
     2
 72
     6
 73
     3
 74
     0
 42
0.0000000001
 43
0.0000000001
 40
0.0
 40
0.0
 40
0.0
 40
0.639193290555541
 40
0.639193290555541
 40
0.639193290555541
 10
2145.509117365239
 20
2629.651639597894
 30
0.0
 10
2145.311329016915
 20
2629.902680998743
 30
0.0
 10
2145.11354066859
 20
2630.153722399591
 30
0.0
  0
SPLINE
  5
C5
330
1F
100
AcDbEntity
  8
Linee visibili 2D
100
AcDbSpline
210
0.0
220
0.0
230
1.0
 70
    24
 71
     2
 72
     6
 73
     3
 74
     0
 42
0.0000000001
 43
0.0000000001
 40
0.0
 40
0.0
 40
0.0
 40
0.5460239028125303
 40
0.5460239028125303
 40
0.5460239028125303
 10
2164.702754954084
 20
2627.588661577049
 30
0.0
 10
2164.484331690193
 20
2627.424872678152
 30
0.0
 10
2164.265908426302
 20
2627.261083779255
 30
0.0
  0
SPLINE
  5
C6
330
1F
100
AcDbEntity
  8
Linee visibili 2D
100
AcDbSpline
210
0.0
220
0.0
230
1.0
 70
    24
 71
     2
 72
     6
 73
     3
 74
     0
 42
0.0000000001
 43
0.0000000001
 40
0.0
 40
0.0
 40
0.0
 40
230.5140618813771
 40
230.5140618813771
 40
230.5140618813771
 10
2145.043085002276
 20
2630.54139256613
 30
0.0
 10
2159.988747171248
 20
2744.825295035348
 30
0.0
 10
2174.934409340221
 20
2859.109197504566
 30
0.0
  0
SPLINE
  5
C7
330
1F
100
AcDbEntity
  8
Linee visibili 2D
100
AcDbSpline
210
0.0
220
0.0
230
1.0
 70
    24
 71
     2
 72
     6
 73
     3
 74
     0
 42
0.0000000001
 43
0.0000000001
 40
0.0
 40
0.0
 40
0.0
 40
1.732248801509251
 40
1.732248801509251
 40
1.732248801509251
 10
2165.085979108412
 20
2629.567165835811
 30
0.0
 10
2164.973666630949
 20
2628.708354223762
 30
0.0
 10
2164.861354153486
 20
2627.849542611714
 30
0.0
  0
SPLINE
  5
C8
330
1F
100
AcDbEntity
  8
Linee visibili 2D
100
AcDbSpline
210
0.0
220
0.0
230
1.0
 70
    24
 71
     2
 72
     6
 73
     3
 74
     0
 42
0.0000000001
 43
0.0000000001
 40
0.0
 40
0.0
 40
0.0
 40
190.8170003258506
 40
190.8170003258506
 40
190.8170003258506
 10
2195.104709522563
 20
2859.109197504566
 30
0.0
 10
2182.732855069561
 20
2764.506242367146
 30
0.0
 10
2170.361000616559
 20
2669.903287229727
 30
0.0
  0
SPLINE
  5
C9
330
1F
100
AcDbEntity
  8
Linee visibili 2D
100
AcDbSpline
210
0.0
220
0.0
230
1.0
 70
    24
 71
     2
 72
     6
 73
     3
 74
     0
 42
0.0000000001
 43
0.0000000001
 40
0.0
 40
0.0
 40
0.0
 40
0.5362876825394775
 40
0.5362876825394775
 40
0.5362876825394775
 10
2139.825263527023
 20
2627.975215206622
 30
0.0
 10
2139.619784899161
 20
2627.802937369676
 30
0.0
 10
2139.414306271299
 20
2627.630659532731
 30
0.0
  0
SPLINE
  5
CA
330
1F
100
AcDbEntity
  8
Linee visibili 2D
100
AcDbSpline
210
0.0
220
0.0
230
1.0
 70
    24
 71
     2
 72
     6
 73
     3
 74
     0
 42
0.0000000001
 43
0.0000000001
 40
0.0
 40
0.0
 40
0.0
 40
0.1988227010927572
 40
0.1988227010927572
 40
0.1988227010927572
 10
2120.776412451998
 20
2628.960441359128
 30
0.0
 10
2120.709813642531
 20
2629.03424661094
 30
0.0
 10
2120.643214833064
 20
2629.108051862752
 30
0.0
  0
SPLINE
  5
CB
330
1F
100
AcDbEntity
  8
Linee visibili 2D
100
AcDbSpline
210
0.0
220
0.0
230
1.0
 70
    24
 71
     2
 72
     6
 73
     3
 74
     0
 42
0.0000000001
 43
0.0000000001
 40
0.0
 40
0.0
 40
0.0
 40
229.8229707265954
 40
229.8229707265954
 40
229.8229707265954
 10
2120.195734816933
 20
2629.840620556452
 30
0.0
 10
2128.172537089174
 20
2744.474909030315
 30
0.0
 10
2136.149339361415
 20
2859.109197504179
 30
0.0
  0
SPLINE
  5
CC
330
1F
100
AcDbEntity
  8
Linee visibili 2D
100
AcDbSpline
210
0.0
220
0.0
230
1.0
 70
    24
 71
     2
 72
     6
 73
     3
 74
     0
 42
0.0000000001
 43
0.0000000001
 40
0.0
 40
0.0
 40
0.0
 40
231.2193302737341
 40
231.2193302737341
 40
231.2193302737341
 10
2156.19770131197
 20
2859.10919750452
 30
0.0
 10
2148.172433544862
 20
2743.778413451325
 30
0.0
 10
2140.147165777753
 20
2628.44762939813
 30
0.0
  0
SPLINE
  5
CD
330
1F
100
AcDbEntity
  8
Linee visibili 2D
100
AcDbSpline
210
0.0
220
0.0
230
1.0
 70
    24
 71
     2
 72
     6
 73
     3
 74
     0
 42
0.0000000001
 43
0.0000000001
 40
0.0
 40
0.0
 40
0.0
 40
0.6213092183447376
 40
0.6213092183447376
 40
0.6213092183447376
 10
2092.656918329332
 20
2628.270837989648
 30
0.0
 10
2092.43275214624
 20
2628.485909625523
 30
0.0
 10
2092.208585963148
 20
2628.700981261398
 30
0.0
  0
SPLINE
  5
CE
330
1F
100
AcDbEntity
  8
Linee visibili 2D
100
AcDbSpline
210
0.0
220
0.0
230
1.0
 70
    24
 71
     2
 72
     6
 73
     3
 74
     0
 42
0.0000000001
 43
0.0000000001
 40
0.0
 40
0.0
 40
0.0
 40
0.6213092183447169
 40
0.6213092183447169
 40
0.6213092183447169
 10
2111.790283150667
 20
2628.700981261398
 30
0.0
 10
2111.566116967575
 20
2628.485909625523
 30
0.0
 10
2111.341950784482
 20
2628.270837989648
 30
0.0
  0
SPLINE
  5
CF
330
1F
100
AcDbEntity
  8
Linee visibili 2D
100
AcDbSpline
210
0.0
220
0.0
230
1.0
 70
    24
 71
     2
 72
     6
 73
     3
 74
     0
 42
0.0000000001
 43
0.0000000001
 40
0.0
 40
0.0
 40
0.0
 40
6.77026535420338
 40
6.77026535420338
 40
6.77026535420338
 10
2091.999434556907
 20
2629.285740845102
 30
0.0
 10
2091.999434556907
 20
2632.670873522204
 30
0.0
 10
2091.999434556907
 20
2636.056006199306
 30
0.0
  0
SPLINE
  5
D0
330
1F
100
AcDbEntity
  8
Linee visibili 2D
100
AcDbSpline
210
0.0
220
0.0
230
1.0
 70
    24
 71
     2
 72
     6
 73
     3
 74
     0
 42
0.0000000001
 43
0.0000000001
 40
0.0
 40
0.0
 40
0.0
 40
6.770265354203321
 40
6.770265354203321
 40
6.770265354203321
 10
2111.999434556907
 20
2636.056006199305
 30
0.0
 10
2111.999434556907
 20
2632.670873522204
 30
0.0
 10
2111.999434556907
 20
2629.285740845102
 30
0.0
  0
SPLINE
  5
D1
330
1F
100
AcDbEntity
  8
Linee visibili 2D
100
AcDbSpline
210
0.0
220
0.0
230
1.0
 70
    24
 71
     2
 72
     6
 73
     3
 74
     0
 42
0.0000000001
 43
0.0000000001
 40
0.0
 40
0.0
 40
0.0
 40
15.4946613065541
 40
15.4946613065541
 40
15.4946613065541
 10
1942.098531980231
 20
2861.711541522478
 30
0.0
 10
1936.559749440118
 20
2867.128461332162
 30
0.0
 10
1931.020966900005
 20
2872.545381141846
 30
0.0
  0
SPLINE
  5
D2
330
1F
100
AcDbEntity
  8
Linee visibili 2D
100
AcDbSpline
210
0.0
220
0.0
230
1.0
 70
    24
 71
     2
 72
     6
 73
     3
 74
     0
 42
0.0000000001
 43
0.0000000001
 40
0.0
 40
0.0
 40
0.0
 40
15.49466130655403
 40
15.49466130655403
 40
15.49466130655403
 10
2272.97790221381
 20
2872.545381141846
 30
0.0
 10
2267.439119673696
 20
2867.128461332162
 30
0.0
 10
2261.900337133583
 20
2861.711541522478
 30
0.0
  0
SPLINE
  5
D3
330
1F
100
AcDbEntity
  8
Linee visibili 2D
100
AcDbSpline
210
0.0
220
0.0
230
1.0
 70
    24
 71
     2
 72
     6
 73
     3
 74
     0
 42
0.0000000001
 43
0.0000000001
 40
0.0
 40
0.0
 40
0.0
 40
1.500000000000057
 40
1.500000000000057
 40
1.500000000000057
 10
1930.999434556909
 20
2872.566439736405
 30
0.0
 10
1930.999434556909
 20
2873.316439736405
 30
0.0
 10
1930.999434556909
 20
2874.066439736405
 30
0.0
  0
SPLINE
  5
D4
330
1F
100
AcDbEntity
  8
Linee visibili 2D
100
AcDbSpline
210
0.0
220
0.0
230
1.0
 70
    24
 71
     2
 72
     6
 73
     3
 74
     0
 42
0.0000000001
 43
0.0000000001
 40
0.0
 40
0.0
 40
0.0
 40
1.500000000000057
 40
1.500000000000057
 40
1.500000000000057
 10
2272.999434556905
 20
2874.066439736405
 30
0.0
 10
2272.999434556905
 20
2873.316439736405
 30
0.0
 10
2272.999434556905
 20
2872.566439736405
 30
0.0
  0
SPLINE
  5
D5
330
1F
100
AcDbEntity
  8
Linee visibili 2D
100
AcDbSpline
210
0.0
220
0.0
230
1.0
 70
    24
 71
     2
 72
     6
 73
     3
 74
     0
 42
0.0000000001
 43
0.0000000001
 40
0.0
 40
0.0
 40
0.0
 40
5.499999999999886
 40
5.499999999999886
 40
5.499999999999886
 10
1939.266836928724
 20
2874.066439736405
 30
0.0
 10
1939.266836928724
 20
2876.816439736405
 30
0.0
 10
1939.266836928724
 20
2879.566439736405
 30
0.0
  0
SPLINE
  5
D6
330
1F
100
AcDbEntity
  8
Linee visibili 2D
100
AcDbSpline
210
0.0
220
0.0
230
1.0
 70
    24
 71
     2
 72
     6
 73
     3
 74
     0
 42
0.0000000001
 43
0.0000000001
 40
0.0
 40
0.0
 40
0.0
 40
5.499999999999886
 40
5.499999999999886
 40
5.499999999999886
 10
2264.732032185091
 20
2879.566439736405
 30
0.0
 10
2264.732032185091
 20
2876.816439736405
 30
0.0
 10
2264.732032185091
 20
2874.066439736405
 30
0.0
  0
SPLINE
  5
D7
330
1F
100
AcDbEntity
  8
Linee visibili 2D
100
AcDbSpline
210
0.0
220
0.0
230
1.0
 70
    24
 71
     2
 72
     6
 73
     3
 74
     0
 42
0.0000000001
 43
0.0000000001
 40
0.0
 40
0.0
 40
0.0
 40
1.433560263594984
 40
1.433560263594984
 40
1.433560263594984
 10
1933.999434556909
 20
2879.566439736405
 30
0.0
 10
1933.999434556909
 20
2880.283219868203
 30
0.0
 10
1933.999434556909
 20
2881.0
 30
0.0
  0
SPLINE
  5
D8
330
1F
100
AcDbEntity
  8
Linee visibili 2D
100
AcDbSpline
210
0.0
220
0.0
230
1.0
 70
    24
 71
     2
 72
     6
 73
     3
 74
     0
 42
0.0000000001
 43
0.0000000001
 40
0.0
 40
0.0
 40
0.0
 40
1.433560263594984
 40
1.433560263594984
 40
1.433560263594984
 10
2269.999434556905
 20
2881.0
 30
0.0
 10
2269.999434556905
 20
2880.283219868203
 30
0.0
 10
2269.999434556905
 20
2879.566439736405
 30
0.0
  0
SPLINE
  5
D9
330
1F
100
AcDbEntity
  8
Linee visibili 2D
100
AcDbSpline
210
0.0
220
0.0
230
1.0
 70
    24
 71
     2
 72
     6
 73
     3
 74
     0
 42
0.0000000001
 43
0.0000000001
 40
0.0
 40
0.0
 40
0.0
 40
93.99269203432578
 40
93.99269203432578
 40
93.99269203432578
 10
2148.995780574066
 20
2910.15270913265
 30
0.0
 10
2101.999434556903
 20
2910.15270913265
 30
0.0
 10
2055.00308853974
 20
2910.15270913265
 30
0.0
  0
SPLINE
  5
DA
330
1F
100
AcDbEntity
  8
Linee visibili 2D
100
AcDbSpline
210
0.0
220
0.0
230
1.0
 70
     8
 71
     3
 72
    14
 73
    10
 74
     0
 42
0.0000000001
 43
0.0000000001
 40
0.0
 40
0.0
 40
0.0
 40
0.0
 40
3.416865008861605
 40
3.516784374976419
 40
4.161458049125999
 40
6.553793168933622
 40
7.686168614513949
 40
22.87847018590989
 40
130.3460620826564
 40
130.3460620826564
 40
130.3460620826564
 40
130.3460620826564
 10
1931.999434556909
 20
2881.0
 30
0.0
 10
1932.0032686265
 20
2882.152517373895
 30
0.0
 10
1931.993702436375
 20
2883.291156489608
 30
0.0
 10
1932.002032065769
 20
2884.706941619647
 30
0.0
 10
1932.145184037631
 20
2885.69987553237
 30
0.0
 10
1933.045019837893
 20
2887.004198304419
 30
0.0
 10
1939.093632655282
 20
2888.566449045557
 30
0.0
 10
1979.172486896463
 20
2898.35548705827
 30
0.0
 10
2019.46055500124
 20
2905.702378850943
 30
0.0
 10
2055.003088539629
 20
2910.15270913265
 30
0.0
  0
SPLINE
  5
DB
330
1F
100
AcDbEntity
  8
Linee visibili 2D
100
AcDbSpline
210
0.0
220
0.0
230
1.0
 70
     8
 71
     3
 72
    21
 73
    17
 74
     0
 42
0.0000000001
 43
0.0000000001
 40
0.0
 40
0.0
 40
0.0
 40
0.0
 40
0.1535949542744942
 40
0.2304201776774696
 40
4.429005386412083
 40
12.67264678629591
 40
27.09911492754266
 40
53.59211305779152
 40
107.4726458658775
 40
122.7113037912245
 40
123.8116615969287
 40
126.233199250957
 40
126.8666685768473
 40
126.9435876023559
 40
127.4618578292166
 40
130.3458398852121
 40
130.3458398852121
 40
130.3458398852121
 40
130.3458398852121
 10
2148.995780574065
 20
2910.15270913265
 30
0.0
 10
2149.046978154943
 20
2910.152087260731
 30
0.0
 10
2149.123731733942
 20
2910.148422642013
 30
0.0
 10
2150.589918048363
 20
2909.976649727964
 30
0.0
 10
2154.727013433971
 20
2909.428081880438
 30
0.0
 10
2163.603800126246
 20
2908.238750195977
 30
0.0
 10
2179.818207024083
 20
2905.857850661895
 30
0.0
 10
2210.987638508483
 20
2900.64325299007
 30
0.0
 10
2242.195903716543
 20
2894.121166673646
 30
0.0
 10
2264.930550771611
 20
2888.556563320332
 30
0.0
 10
2270.99010711409
 20
2886.986858226443
 30
0.0
 10
2271.870484540916
 20
2885.660002388176
 30
0.0
 10
2271.997627233542
 20
2884.672266385038
 30
0.0
 10
2272.000350805966
 20
2884.251029294932
 30
0.0
 10
2271.999420687577
 20
2883.095411606985
 30
0.0
 10
2271.999441240085
 20
2881.961327274354
 30
0.0
 10
2271.999434556905
 20
2881.0
 30
0.0
  0
SPLINE
  5
DC
330
1F
100
AcDbEntity
  8
Linee visibili 2D
100
AcDbSpline
210
0.0
220
0.0
230
1.0
 70
    12
 71
     2
 72
     6
 73
     3
 74
     0
 42
0.0000000001
 43
0.0000000001
 40
0.0
 40
0.0
 40
0.0
 40
0.0055744377128717
 40
0.0055744377128717
 40
0.0055744377128717
 10
1949.999569240128
 20
2859.112438617225
 30
0.0
 41
1.0
 10
1950.002356458127
 20
2859.112442326759
 30
0.0
 41
0.9999991328452138
 10
1950.005143656688
 20
2859.112453377425
 30
0.0
 41
1.0
  0
SPLINE
  5
DD
330
1F
100
AcDbEntity
  8
Linee visibili 2D
100
AcDbSpline
210
0.0
220
0.0
230
1.0
 70
     8
 71
     3
 72
    15
 73
    11
 74
     0
 42
0.0000000001
 43
0.0000000001
 40
0.0
 40
0.0
 40
0.0
 40
0.0
 40
0.4309332313132005
 40
0.9235138016350991
 40
1.814373816589246
 40
2.669821974560948
 40
3.051474243245758
 40
3.174206310761992
 40
3.202520351005857
 40
3.742897214440205
 40
3.742897214440205
 40
3.742897214440205
 40
3.742897214440205
 10
1949.999573553756
 20
2859.109197504566
 30
0.0
 10
1949.855696319274
 20
2859.109259419099
 30
0.0
 10
1949.548704033252
 20
2859.145206908416
 30
0.0
 10
1948.972854590445
 20
2859.345435391434
 30
0.0
 10
1948.379853988246
 20
2859.828861180628
 30
0.0
 10
1948.064621559698
 20
2860.482747837678
 30
0.0
 10
1948.001849039762
 20
2860.933757821386
 30
0.0
 10
1947.99954277626
 20
2861.11138397567
 30
0.0
 10
1947.999612223485
 20
2861.341844011582
 30
0.0
 10
1947.999550824571
 20
2861.531420876473
 30
0.0
 10
1947.999573553641
 20
2861.711541522478
 30
0.0
  0
SPLINE
  5
DE
330
1F
100
AcDbEntity
  8
Linee visibili 2D
100
AcDbSpline
210
0.0
220
0.0
230
1.0
 70
    12
 71
     3
 72
    13
 73
     9
 74
     0
 42
0.0000000001
 43
0.0000000001
 40
0.0
 40
0.0
 40
0.0
 40
0.0
 40
0.5026548245743669
 40
0.8168140899333465
 40
1.445132620651306
 40
2.356194490192345
 40
3.26725635973338
 40
3.744194455721763
 40
3.744194455721763
 40
3.744194455721763
 40
3.744194455721763
 10
2255.999295560173
 20
2861.711541522478
 30
0.0
 41
1.0
 10
2255.999295560173
 20
2861.543989914287
 30
0.0
 41
1.0
 10
2255.999696857502
 20
2861.271165703939
 30
0.0
 41
1.0
 10
2255.993222790912
 20
2860.790002311349
 30
0.0
 41
1.0
 10
2255.829682875038
 20
2860.184819951803
 30
0.0
 41
1.0
 10
2255.3247037421
 20
2859.519263018182
 30
0.0
 41
1.0
 10
2254.620943023813
 20
2859.164375704511
 30
0.0
 41
1.0
 10
2254.158274280639
 20
2859.109650460367
 30
0.0
 41
1.0
 10
2253.999295560579
 20
2859.109197504566
 30
0.0
 41
1.0
  0
SPLINE
  5
DF
330
1F
100
AcDbEntity
  8
Linee visibili 2D
100
AcDbSpline
210
0.0
220
0.0
230
1.0
 70
    24
 71
     2
 72
     6
 73
     3
 74
     0
 42
0.0000000001
 43
0.0000000001
 40
0.0
 40
0.0
 40
0.0
 40
303.9941420302401
 40
303.9941420302401
 40
303.9941420302401
 10
2253.999295560155
 20
2859.109197504566
 30
0.0
 10
2102.002224545035
 20
2859.109197504566
 30
0.0
 10
1950.005153529914
 20
2859.109197504566
 30
0.0
  0
SPLINE
  5
E0
330
1F
100
AcDbEntity
  8
Linee visibili 2D
100
AcDbSpline
210
0.0
220
0.0
230
1.0
 70
    12
 71
     2
 72
     6
 73
     3
 74
     0
 42
0.0000000001
 43
0.0000000001
 40
0.0
 40
0.0
 40
0.0
 40
0.0283293909781532
 40
0.0283293909781532
 40
0.0283293909781532
 10
2120.092722877393
 20
2636.80650432567
 30
0.0
 41
1.0
 10
2120.093897208716
 20
2636.791191265955
 30
0.0
 41
0.8874223840011741
 10
2120.107100526702
 20
2636.783346443072
 30
0.0
 41
1.0
  0
SPLINE
  5
E1
330
1F
100
AcDbEntity
  8
Linee visibili 2D
100
AcDbSpline
210
0.0
220
0.0
230
1.0
 70
    12
 71
     2
 72
    12
 73
     9
 74
     0
 42
0.0000000001
 43
0.0000000001
 40
0.0
 40
0.0
 40
0.0
 40
0.059812104356703
 40
0.059812104356703
 40
0.119624208713406
 40
0.119624208713406
 40
0.179436313070109
 40
0.179436313070109
 40
0.239248417426812
 40
0.239248417426812
 40
0.239248417426812
 10
2120.646464856062
 20
2636.318042879936
 30
0.0
 41
1.0
 10
2120.618984631014
 20
2636.336219231534
 30
0.0
 41
0.8671109105699222
 10
2120.58943962188
 20
2636.321637223397
 30
0.0
 41
1.0
 10
2120.559894612745
 20
2636.307055215261
 30
0.0
 41
0.8671109105699222
 10
2120.557607492864
 20
2636.274187121177
 30
0.0
 41
1.0
 10
2120.555320372983
 20
2636.241319027093
 30
0.0
 41
0.8671109105699222
 10
2120.582561050916
 20
2636.222785598058
 30
0.0
 41
1.0
 10
2120.60980172885
 20
2636.204252169023
 30
0.0
 41
0.8671109105699222
 10
2120.639534521616
 20
2636.218447363997
 30
0.0
 41
1.0
  0
SPLINE
  5
E2
330
1F
100
AcDbEntity
  8
Linee visibili 2D
100
AcDbSpline
210
0.0
220
0.0
230
1.0
 70
    12
 71
     2
 72
     6
 73
     3
 74
     0
 42
0.0000000001
 43
0.0000000001
 40
0.0
 40
0.0
 40
0.0
 40
0.6092177927057429
 40
0.6092177927057429
 40
0.6092177927057429
 10
2120.092722877393
 20
2636.80650432567
 30
0.0
 41
1.0
 10
2120.37651231265
 20
2636.938211884406
 30
0.0
 41
0.960891555852237
 10
2120.686868990422
 20
2636.89868901566
 30
0.0
 41
1.0
  0
SPLINE
  5
E3
330
1F
100
AcDbEntity
  8
Linee visibili 2D
100
AcDbSpline
210
0.0
220
0.0
230
1.0
 70
    24
 71
     2
 72
     6
 73
     3
 74
     0
 42
0.0000000001
 43
0.0000000001
 40
0.0
 40
0.0
 40
0.0
 40
222.8184450297027
 40
222.8184450297027
 40
222.8184450297027
 10
2120.092722877393
 20
2636.80650432567
 30
0.0
 10
2127.668540504293
 20
2747.957850915118
 30
0.0
 10
2135.244358131193
 20
2859.109197504566
 30
0.0
  0
SPLINE
  5
E4
330
1F
100
AcDbEntity
  8
Linee visibili 2D
100
AcDbSpline
210
0.0
220
0.0
230
1.0
 70
    12
 71
     2
 72
     8
 73
     5
 74
     0
 42
0.0000000001
 43
0.0000000001
 40
-30.42689189750789
 40
-30.42689189750789
 40
-30.42689189750789
 40
-15.70796326794896
 40
-15.70796326794896
 40
-14.36261341222202
 40
-14.36261341222202
 40
-14.36261341222202
 10
2192.877954402129
 20
2627.121107356079
 30
0.0
 41
0.9654389236206419
 10
2193.659388388303
 20
2627.285934265418
 30
0.0
 41
0.7255484807127446
 10
2184.846484106486
 20
2629.106599908283
 30
0.0
 41
1.0
 10
2184.18771639735
 20
2629.242682080373
 30
0.0
 41
0.9999971929115655
 10
2183.528311214225
 20
2629.375640933514
 30
0.0
 41
1.0
  0
SPLINE
  5
E5
330
1F
100
AcDbEntity
  8
Linee visibili 2D
100
AcDbSpline
210
0.0
220
0.0
230
1.0
 70
    12
 71
     2
 72
     6
 73
     3
 74
     0
 42
0.0000000001
 43
0.0000000001
 40
0.0
 40
0.0
 40
0.0
 40
0.1174438881249145
 40
0.1174438881249145
 40
0.1174438881249145
 10
2192.760376794605
 20
2627.112920564111
 30
0.0
 41
1.0
 10
2192.819253301272
 20
2627.111446959357
 30
0.0
 41
0.9955996437954393
 10
2192.877370741937
 20
2627.120985179256
 30
0.0
 41
1.0
  0
SPLINE
  5
E6
330
1F
100
AcDbEntity
  8
Linee visibili 2D
100
AcDbSpline
210
0.0
220
0.0
230
1.0
 70
    12
 71
     2
 72
     8
 73
     5
 74
     0
 42
0.0000000001
 43
0.0000000001
 40
29.84513020910303
 40
29.84513020910303
 40
29.84513020910303
 40
44.76769531365455
 40
44.76769531365455
 40
46.01584359438056
 40
46.01584359438056
 40
46.01584359438056
 10
2192.179688527608
 20
2626.72264217901
 30
0.0
 41
1.0
 10
2193.829346215443
 20
2626.72264217901
 30
0.0
 41
0.7071067811865476
 10
2184.661490473895
 20
2628.616637555973
 30
0.0
 41
1.0
 10
2184.050318895272
 20
2628.742888201884
 30
0.0
 41
0.9999973205126759
 10
2183.438569342267
 20
2628.866307845812
 30
0.0
 41
1.0
  0
SPLINE
  5
E7
330
1F
100
AcDbEntity
  8
Linee visibili 2D
100
AcDbSpline
210
0.0
220
0.0
230
1.0
 70
    12
 71
     2
 72
     6
 73
     3
 74
     0
 42
0.0000000001
 43
0.0000000001
 40
17.06932351829923
 40
17.06932351829923
 40
17.06932351829923
 40
29.84513020910303
 40
29.84513020910303
 40
29.84513020910303
 10
2183.324489353894
 20
2628.218842939461
 30
0.0
 41
0.927852073616293
 10
2190.846776884924
 20
2626.72264217901
 30
0.0
 41
0.7492423642724373
 10
2192.179688527608
 20
2626.72264217901
 30
0.0
 41
1.0
  0
SPLINE
  5
E8
330
1F
100
AcDbEntity
  8
Linee visibili 2D
100
AcDbSpline
210
0.0
220
0.0
230
1.0
 70
    12
 71
     2
 72
     6
 73
     3
 74
     0
 42
0.0000000001
 43
0.0000000001
 40
0.0
 40
0.0
 40
0.0
 40
0.1621450620438529
 40
0.1621450620438529
 40
0.1621450620438529
 10
2011.083742078706
 20
2627.142031377109
 30
0.0
 41
1.0
 10
2011.154652161084
 20
2627.093108460299
 30
0.0
 41
0.9139054735423902
 10
2011.23849231921
 20
2627.112920564111
 30
0.0
 41
1.0
  0
SPLINE
  5
E9
330
1F
100
AcDbEntity
  8
Linee visibili 2D
100
AcDbSpline
210
0.0
220
0.0
230
1.0
 70
    12
 71
     2
 72
     6
 73
     3
 74
     0
 42
0.0000000001
 43
0.0000000001
 40
29.84513020910303
 40
29.84513020910303
 40
29.84513020910303
 40
42.62093689983593
 40
42.62093689983593
 40
42.62093689983593
 10
2011.819180586207
 20
2626.72264217901
 30
0.0
 41
1.0
 10
2013.152092228881
 20
2626.72264217901
 30
0.0
 41
0.7492423642738291
 10
2020.674379759853
 20
2628.218842939448
 30
0.0
 41
0.9278520736143102
  0
SPLINE
  5
EA
330
1F
100
AcDbEntity
  8
Linee visibili 2D
100
AcDbSpline
210
0.0
220
0.0
230
1.0
 70
    12
 71
     2
 72
     6
 73
     3
 74
     0
 42
0.0000000001
 43
0.0000000001
 40
0.0
 40
0.0
 40
0.0
 40
0.1414238703223191
 40
0.1414238703223191
 40
0.1414238703223191
 10
2011.679984854494
 20
2626.7402544532
 30
0.0
 41
1.0
 10
2011.747631241325
 20
2626.716025120445
 30
0.0
 41
0.9763146180887369
 10
2011.819180586207
 20
2626.72264217901
 30
0.0
 41
1.0
  0
SPLINE
  5
EB
330
1F
100
AcDbEntity
  8
Linee visibili 2D
100
AcDbSpline
210
0.0
220
0.0
230
1.0
 70
    12
 71
     2
 72
     8
 73
     5
 74
     0
 42
0.0000000001
 43
0.0000000001
 40
0.0
 40
0.0
 40
0.0
 40
1.248148280819288
 40
1.248148280819288
 40
14.30539274730186
 40
14.30539274730186
 40
14.30539274730186
 10
2020.560299771639
 20
2628.86630784583
 30
0.0
 41
1.0
 10
2019.948550218588
 20
2628.742888201893
 30
0.0
 41
0.9999973205126755
 10
2019.33737863992
 20
2628.616637555973
 30
0.0
 41
1.0
 10
2011.710404387945
 20
2627.040974240505
 30
0.0
 41
0.7437184335382292
 10
2011.672057811908
 20
2626.754261734049
 30
0.0
 41
0.9359296083845572
  0
SPLINE
  5
EC
330
1F
100
AcDbEntity
  8
Linee visibili 2D
100
AcDbSpline
210
0.0
220
0.0
230
1.0
 70
    12
 71
     2
 72
     8
 73
     5
 74
     0
 42
0.0000000001
 43
0.0000000001
 40
33.12690435147107
 40
33.12690435147107
 40
33.12690435147107
 40
47.97937871163347
 40
47.97937871163347
 40
48.47652353850795
 40
48.47652353850795
 40
48.47652353850795
 10
2011.083742078706
 20
2627.142031377109
 30
0.0
 41
1.0
 10
2011.021311996094
 20
2627.453618748919
 30
0.0
 41
0.736696877653964
 10
2019.983307635884
 20
2629.276949000687
 30
0.0
 41
1.0
 10
2020.226890061168
 20
2629.326505813218
 30
0.0
 41
0.999999625495738
 10
2020.470557899684
 20
2629.375640933533
 30
0.0
 41
1.0
  0
SPLINE
  5
ED
330
1F
100
AcDbEntity
  8
Linee visibili 2D
100
AcDbSpline
210
0.0
220
0.0
230
1.0
 70
    24
 71
     2
 72
     6
 73
     3
 74
     0
 42
0.0000000001
 43
0.0000000001
 40
0.0
 40
0.0
 40
0.0
 40
236.5774766763241
 40
236.5774766763241
 40
236.5774766763241
 10
2011.083742078706
 20
2627.142031377109
 30
0.0
 10
1987.845108785559
 20
2743.125614440837
 30
0.0
 10
1964.606475492413
 20
2859.109197504566
 30
0.0
  0
SPLINE
  5
EE
330
1F
100
AcDbEntity
  8
Linee visibili 2D
100
AcDbSpline
210
0.0
220
0.0
230
1.0
 70
    12
 71
     2
 72
     6
 73
     3
 74
     0
 42
0.0000000001
 43
0.0000000001
 40
0.0
 40
0.0
 40
0.0
 40
0.0841148270464182
 40
0.0841148270464182
 40
0.0841148270464182
 10
2163.494608996591
 20
2630.760851222732
 30
0.0
 41
1.0
 10
2163.472454075909
 20
2630.798535467626
 30
0.0
 41
0.9441027995535922
 10
2163.478570830027
 20
2630.841819738935
 30
0.0
 41
1.0
  0
SPLINE
  5
EF
330
1F
100
AcDbEntity
  8
Linee visibili 2D
100
AcDbSpline
210
0.0
220
0.0
230
1.0
 70
    12
 71
     2
 72
     8
 73
     5
 74
     0
 42
0.0000000001
 43
0.0000000001
 40
-31.41592653589793
 40
-31.41592653589793
 40
-31.41592653589793
 40
-18.28227472793852
 40
-18.28227472793852
 40
-6.13164123278673
 40
-6.13164123278673
 40
-6.13164123278673
 10
2181.81326767189
 20
2627.112920564111
 30
0.0
 41
1.0
 10
2177.959253022157
 20
2627.112920564111
 30
0.0
 41
0.7920218404887583
 10
2170.652247648523
 20
2628.599014746262
 30
0.0
 41
1.0
 10
2164.022455516648
 20
2629.947377722919
 30
0.0
 41
0.8075884431711648
 10
2163.504892286508
 20
2630.743419429887
 30
0.0
 41
0.9711970308450022
  0
SPLINE
  5
F0
330
1F
100
AcDbEntity
  8
Linee visibili 2D
100
AcDbSpline
210
0.0
220
0.0
230
1.0
 70
    12
 71
     2
 72
     6
 73
     3
 74
     0
 42
0.0000000001
 43
0.0000000001
 40
0.0
 40
0.0
 40
0.0
 40
1.312119498405461
 40
1.312119498405461
 40
1.312119498405461
 10
2183.10455106158
 20
2627.279207739643
 30
0.0
 41
1.0
 10
2182.477147351495
 20
2627.054439238791
 30
0.0
 41
0.9767764309358472
 10
2181.81326767189
 20
2627.112920564112
 30
0.0
 41
1.0
  0
SPLINE
  5
F1
330
1F
100
AcDbEntity
  8
Linee visibili 2D
100
AcDbSpline
210
0.0
220
0.0
230
1.0
 70
    12
 71
     2
 72
     6
 73
     3
 74
     0
 42
0.0000000001
 43
0.0000000001
 40
0.0
 40
0.0
 40
0.0
 40
0.0945201487339822
 40
0.0945201487339822
 40
0.0945201487339822
 10
2183.169537772633
 20
2627.351575556825
 30
0.0
 41
1.0
 10
2183.149389224943
 20
2627.307271036048
 30
0.0
 41
0.957081826898132
 10
2183.108047085512
 20
2627.281586759876
 30
0.0
 41
1.0
  0
SPLINE
  5
F2
330
1F
100
AcDbEntity
  8
Linee visibili 2D
100
AcDbSpline
210
0.0
220
0.0
230
1.0
 70
    12
 71
     2
 72
     8
 73
     5
 74
     0
 42
0.0000000001
 43
0.0000000001
 40
29.84513020910303
 40
29.84513020910303
 40
29.84513020910303
 40
44.76769531365455
 40
44.76769531365455
 40
54.09429850399924
 40
54.09429850399924
 40
54.09429850399924
 10
2181.302618979939
 20
2626.72264217901
 30
0.0
 41
1.0
 10
2176.552618979939
 20
2626.72264217901
 30
0.0
 41
0.7071067811865476
 10
2168.490541943961
 20
2628.616637555973
 30
0.0
 41
1.0
 10
2164.129192569419
 20
2629.641234011185
 30
0.0
 41
0.8169417382415923
 10
2163.89337332517
 20
2630.20190318476
 30
0.0
 41
0.8627063036811942
  0
SPLINE
  5
F3
330
1F
100
AcDbEntity
  8
Linee visibili 2D
100
AcDbSpline
210
0.0
220
0.0
230
1.0
 70
    12
 71
     2
 72
     6
 73
     3
 74
     0
 42
0.0000000001
 43
0.0000000001
 40
0.0
 40
0.0
 40
0.0
 40
1.250468423490149
 40
1.250468423490149
 40
1.250468423490149
 10
2182.53265942288
 20
2626.882875064985
 30
0.0
 41
1.0
 10
2181.935529592516
 20
2626.66542161738
 30
0.0
 41
0.9759627872559096
 10
2181.302618979939
 20
2626.72264217901
 30
0.0
 41
1.0
  0
SPLINE
  5
F4
330
1F
100
AcDbEntity
  8
Linee visibili 2D
100
AcDbSpline
210
0.0
220
0.0
230
1.0
 70
    24
 71
     2
 72
     6
 73
     3
 74
     0
 42
0.0000000001
 43
0.0000000001
 40
0.0
 40
0.0
 40
0.0
 40
231.783534873042
 40
231.783534873042
 40
231.783534873042
 10
2163.478570830027
 20
2630.841819738935
 30
0.0
 10
2183.588340136544
 20
2744.975508621751
 30
0.0
 10
2203.698109443061
 20
2859.109197504566
 30
0.0
  0
SPLINE
  5
F5
330
1F
100
AcDbEntity
  8
Linee visibili 2D
100
AcDbSpline
210
0.0
220
0.0
230
1.0
 70
    12
 71
     2
 72
     6
 73
     3
 74
     0
 42
0.0000000001
 43
0.0000000001
 40
-31.41592653589792
 40
-31.41592653589792
 40
-31.41592653589792
 40
-26.26730361591887
 40
-26.26730361591887
 40
-26.26730361591887
 10
2022.185601441924
 20
2627.112920564111
 30
0.0
 41
1.0
 10
2020.869237597751
 20
2627.112920564111
 30
0.0
 41
0.967047191205277
 10
2020.823698360013
 20
2627.371380077631
 30
0.0
 41
1.0
  0
SPLINE
  5
F6
330
1F
100
AcDbEntity
  8
Linee visibili 2D
100
AcDbSpline
210
0.0
220
0.0
230
1.0
 70
    12
 71
     2
 72
     8
 73
     5
 74
     0
 42
0.0000000001
 43
0.0000000001
 40
-56.69131762560061
 40
-56.69131762560061
 40
-56.69131762560061
 40
-47.12388980384689
 40
-47.12388980384689
 40
-31.41592653589792
 40
-31.41592653589792
 40
-31.41592653589792
 10
2040.495776552944
 20
2630.746228682115
 30
0.0
 41
0.860523514485218
 10
2040.120574268275
 20
2630.15168819495
 30
0.0
 41
0.8216041963762041
 10
2035.6719983219
 20
2629.106599908283
 30
0.0
 41
1.0
 10
2027.185601441924
 20
2627.112920564111
 30
0.0
 41
0.7071067811865476
 10
2022.185601441924
 20
2627.112920564111
 30
0.0
 41
1.0
  0
SPLINE
  5
F7
330
1F
100
AcDbEntity
  8
Linee visibili 2D
100
AcDbSpline
210
0.0
220
0.0
230
1.0
 70
    12
 71
     2
 72
     6
 73
     3
 74
     0
 42
0.0000000001
 43
0.0000000001
 40
0.0
 40
0.0
 40
0.0
 40
0.1066013818847077
 40
0.1066013818847077
 40
0.1066013818847077
 10
2040.506801911272
 20
2630.877553384458
 30
0.0
 41
1.0
 10
2040.536396357554
 20
2630.827586348523
 30
0.0
 41
0.8811593479305116
 10
2040.511123183785
 20
2630.775300570164
 30
0.0
 41
1.0
  0
SPLINE
  5
F8
330
1F
100
AcDbEntity
  8
Linee visibili 2D
100
AcDbSpline
210
0.0
220
0.0
230
1.0
 70
    12
 71
     2
 72
     6
 73
     3
 74
     0
 42
0.0000000001
 43
0.0000000001
 40
0.0
 40
0.0
 40
0.0
 40
1.250468423490175
 40
1.250468423490175
 40
1.250468423490175
 10
2022.696250133875
 20
2626.72264217901
 30
0.0
 41
1.0
 10
2022.063339521299
 20
2626.66542161738
 30
0.0
 41
0.9759627872558905
 10
2021.466209690935
 20
2626.882875064985
 30
0.0
 41
1.0
  0
SPLINE
  5
F9
330
1F
100
AcDbEntity
  8
Linee visibili 2D
100
AcDbSpline
210
0.0
220
0.0
230
1.0
 70
    12
 71
     2
 72
     8
 73
     5
 74
     0
 42
0.0000000001
 43
0.0000000001
 40
5.595961914206819
 40
5.595961914206819
 40
5.595961914206819
 40
14.92256510455152
 40
14.92256510455152
 40
29.84513020910303
 40
29.84513020910303
 40
29.84513020910303
 10
2040.105495788644
 20
2630.20190318476
 30
0.0
 41
0.8627063036811942
 10
2039.869676544395
 20
2629.641234011185
 30
0.0
 41
0.8169417382415922
 10
2035.508327169853
 20
2628.616637555973
 30
0.0
 41
1.0
 10
2027.446250133876
 20
2626.722642179009
 30
0.0
 41
0.7071067811865476
 10
2022.696250133875
 20
2626.72264217901
 30
0.0
 41
1.0
  0
SPLINE
  5
FA
330
1F
100
AcDbEntity
  8
Linee visibili 2D
100
AcDbSpline
210
0.0
220
0.0
230
1.0
 70
    24
 71
     2
 72
     6
 73
     3
 74
     0
 42
0.0000000001
 43
0.0000000001
 40
0.0
 40
0.0
 40
0.0
 40
235.3074320682276
 40
235.3074320682276
 40
235.3074320682276
 10
2020.823698360013
 20
2627.371380077631
 30
0.0
 10
2000.408192238782
 20
2743.240288791098
 30
0.0
 10
1979.992686117552
 20
2859.109197504566
 30
0.0
  0
SPLINE
  5
FB
330
1F
100
AcDbEntity
  8
Linee visibili 2D
100
AcDbSpline
210
0.0
220
0.0
230
1.0
 70
    12
 71
     2
 72
     6
 73
     3
 74
     0
 42
0.0000000001
 43
0.0000000001
 40
-5.890486225480863
 40
-5.890486225480863
 40
-5.890486225480863
 40
-1.912439959732355
 40
-1.912439959732355
 40
-1.912439959732355
 10
2083.89159049413
 20
2636.783204288136
 30
0.0
 41
0.8627063036811934
 10
2084.001197431116
 20
2636.870447750021
 30
0.0
 41
0.8812501268918912
 10
2083.312000123393
 20
2636.89868901566
 30
0.0
 41
0.9373637790703131
  0
SPLINE
  5
FC
330
1F
100
AcDbEntity
  8
Linee visibili 2D
100
AcDbSpline
210
0.0
220
0.0
230
1.0
 70
    12
 71
     2
 72
    12
 73
     9
 74
     0
 42
0.0000000001
 43
0.0000000001
 40
0.0
 40
0.0
 40
0.0
 40
0.0598121043569238
 40
0.0598121043569238
 40
0.1196242087138476
 40
0.1196242087138476
 40
0.1794363130707714
 40
0.1794363130707714
 40
0.2392484174276952
 40
0.2392484174276952
 40
0.2392484174276952
 10
2083.359334592198
 20
2636.218447363997
 30
0.0
 41
1.0
 10
2083.389067384965
 20
2636.204252169023
 30
0.0
 41
0.867110910569761
 10
2083.416308062898
 20
2636.222785598058
 30
0.0
 41
1.0
 10
2083.443548740832
 20
2636.241319027093
 30
0.0
 41
0.867110910569761
 10
2083.441261620951
 20
2636.274187121177
 30
0.0
 41
1.0
 10
2083.438974501069
 20
2636.307055215262
 30
0.0
 41
0.867110910569761
 10
2083.409429491935
 20
2636.321637223398
 30
0.0
 41
1.0
 10
2083.3798844828
 20
2636.336219231534
 30
0.0
 41
0.867110910569761
 10
2083.352404257752
 20
2636.318042879936
 30
0.0
 41
1.0
  0
SPLINE
  5
FD
330
1F
100
AcDbEntity
  8
Linee visibili 2D
100
AcDbSpline
210
0.0
220
0.0
230
1.0
 70
    12
 71
     2
 72
     6
 73
     3
 74
     0
 42
0.0000000001
 43
0.0000000001
 40
-31.41592653589793
 40
-31.41592653589793
 40
-31.41592653589793
 40
-19.17032789056033
 40
-19.17032789056033
 40
-19.17032789056033
 10
2070.478490111088
 20
2627.112920564111
 30
0.0
 41
1.0
 10
2063.81242993368
 20
2627.112920564111
 30
0.0
 41
0.7943786642321211
 10
2063.853472752541
 20
2628.447752522594
 30
0.0
 41
0.9485946660580303
  0
SPLINE
  5
FE
330
1F
100
AcDbEntity
  8
Linee visibili 2D
100
AcDbSpline
210
0.0
220
0.0
230
1.0
 70
    12
 71
     2
 72
     8
 73
     5
 74
     0
 42
0.0000000001
 43
0.0000000001
 40
0.0
 40
0.0
 40
0.0
 40
0.5480027634654486
 40
0.5480027634654486
 40
16.25596603141441
 40
16.25596603141441
 40
16.25596603141441
 10
2083.657267305935
 20
2629.442463078916
 30
0.0
 41
1.0
 10
2083.468003802202
 20
2629.241358351215
 30
0.0
 41
0.9883217400153029
 10
2083.226956198174
 20
2629.106599908283
 30
0.0
 41
1.0
 10
2079.875416318947
 20
2627.112920564111
 30
0.0
 41
0.7071067811865491
 10
2070.478490111088
 20
2627.112920564112
 30
0.0
 41
1.0
  0
SPLINE
  5
FF
330
1F
100
AcDbEntity
  8
Linee visibili 2D
100
AcDbSpline
210
0.0
220
0.0
230
1.0
 70
    12
 71
     2
 72
     6
 73
     3
 74
     0
 42
0.0000000001
 43
0.0000000001
 40
0.0
 40
0.0
 40
0.0
 40
0.4033402519871484
 40
0.4033402519871484
 40
0.4033402519871484
 10
2083.800866142759
 20
2629.840462727436
 30
0.0
 41
1.0
 10
2083.828361042196
 20
2629.626254187524
 30
0.0
 41
0.9036025516983895
 10
2083.679934403823
 20
2629.46937588728
 30
0.0
 41
1.0
  0
SPLINE
  5
100
330
1F
100
AcDbEntity
  8
Linee visibili 2D
100
AcDbSpline
210
0.0
220
0.0
230
1.0
 70
    12
 71
     2
 72
     6
 73
     3
 74
     0
 42
0.0000000001
 43
0.0000000001
 40
29.84513020910303
 40
29.84513020910303
 40
29.84513020910303
 40
39.45815888856767
 40
39.45815888856767
 40
39.45815888856767
 10
2070.680161029801
 20
2626.72264217901
 30
0.0
 41
1.0
 10
2065.668068901639
 20
2626.72264217901
 30
0.0
 41
0.8113199109705576
 10
2064.584726729325
 20
2627.630522158028
 30
0.0
 41
0.8657330293590209
  0
SPLINE
  5
101
330
1F
100
AcDbEntity
  8
Linee visibili 2D
100
AcDbSpline
210
0.0
220
0.0
230
1.0
 70
    12
 71
     2
 72
     8
 73
     5
 74
     0
 42
0.0000000001
 43
0.0000000001
 40
0.0
 40
0.0
 40
0.0
 40
0.5540224229964779
 40
0.5540224229964779
 40
15.47658752754799
 40
15.47658752754799
 40
15.47658752754799
 10
2083.2215331079
 20
2628.96127473602
 30
0.0
 41
1.0
 10
2083.036139061504
 20
2628.751783250509
 30
0.0
 41
0.9854021311168026
 10
2082.791203812534
 20
2628.616637555973
 30
0.0
 41
1.0
 10
2079.607240927267
 20
2626.72264217901
 30
0.0
 41
0.7071067811865476
 10
2070.680161029801
 20
2626.72264217901
 30
0.0
 41
1.0
  0
SPLINE
  5
102
330
1F
100
AcDbEntity
  8
Linee visibili 2D
100
AcDbSpline
210
0.0
220
0.0
230
1.0
 70
    12
 71
     2
 72
     8
 73
     5
 74
     0
 42
0.0000000001
 43
0.0000000001
 40
-62.83185307179586
 40
-62.83185307179586
 40
-62.83185307179586
 40
-47.12388980384689
 40
-47.12388980384689
 40
-38.51071567272697
 40
-38.51071567272697
 40
-38.51071567272697
 10
2055.357105936149
 20
2631.100279252455
 30
0.0
 41
1.0
 10
2047.69666150496
 20
2631.100279252455
 30
0.0
 41
0.7071067811865457
 10
2041.397826919399
 20
2629.106599908283
 30
0.0
 41
1.0
 10
2038.488309547934
 20
2628.185692301295
 30
0.0
 41
0.839397364735887
 10
2039.296144694417
 20
2627.588658921627
 30
0.0
 41
0.8549217600549271
  0
SPLINE
  5
103
330
1F
100
AcDbEntity
  8
Linee visibili 2D
100
AcDbSpline
210
0.0
220
0.0
230
1.0
 70
    12
 71
     2
 72
     8
 73
     5
 74
     0
 42
0.0000000001
 43
0.0000000001
 40
29.84513020910303
 40
29.84513020910303
 40
29.84513020910303
 40
44.76769531365455
 40
44.76769531365455
 40
59.69026041820607
 40
59.69026041820607
 40
59.69026041820607
 10
2043.138454113313
 20
2626.72264217901
 30
0.0
 41
1.0
 10
2050.415876322943
 20
2626.72264217901
 30
0.0
 41
0.7071067811865476
 10
2056.399769179226
 20
2628.616637555973
 30
0.0
 41
1.0
 10
2062.383662035508
 20
2630.510632932936
 30
0.0
 41
0.7071067811865476
 10
2055.106239825877
 20
2630.510632932936
 30
0.0
 41
1.0
  0
SPLINE
  5
104
330
1F
100
AcDbEntity
  8
Linee visibili 2D
100
AcDbSpline
210
0.0
220
0.0
230
1.0
 70
    12
 71
     2
 72
     8
 73
     5
 74
     0
 42
0.0000000001
 43
0.0000000001
 40
0.0
 40
0.0
 40
0.0
 40
14.92256510455152
 40
14.92256510455152
 40
29.84513020910303
 40
29.84513020910303
 40
29.84513020910303
 10
2055.106239825877
 20
2630.510632932936
 30
0.0
 41
1.0
 10
2047.828817616247
 20
2630.510632932936
 30
0.0
 41
0.7071067811865476
 10
2041.844924759965
 20
2628.616637555973
 30
0.0
 41
1.0
 10
2035.861031903683
 20
2626.72264217901
 30
0.0
 41
0.7071067811865476
 10
2043.138454113313
 20
2626.72264217901
 30
0.0
 41
1.0
  0
SPLINE
  5
105
330
1F
100
AcDbEntity
  8
Linee visibili 2D
100
AcDbSpline
210
0.0
220
0.0
230
1.0
 70
    12
 71
     2
 72
     6
 73
     3
 74
     0
 42
0.0000000001
 43
0.0000000001
 40
0.0
 40
0.0
 40
0.0
 40
10.05789700123852
 40
10.05789700123852
 40
10.05789700123852
 10
2055.357105936149
 20
2631.100279252455
 30
0.0
 41
1.0
 10
2059.607721041969
 20
2631.100279252455
 30
0.0
 41
0.850547813219408
 10
2058.891450052532
 20
2630.161616241335
 30
0.0
 41
0.9461689560364979
  0
SPLINE
  5
106
330
1F
100
AcDbEntity
  8
Linee visibili 2D
100
AcDbSpline
210
0.0
220
0.0
230
1.0
 70
    12
 71
     2
 72
     6
 73
     3
 74
     0
 42
0.0000000001
 43
0.0000000001
 40
29.84513020910303
 40
29.84513020910303
 40
29.84513020910303
 40
43.8808124238153
 40
43.8808124238153
 40
43.8808124238153
 10
2101.999434556907
 20
2634.882685102471
 30
0.0
 41
1.0
 10
2093.278725362072
 20
2634.882685102471
 30
0.0
 41
0.7245141091154681
 10
2092.534126486175
 20
2635.56440544151
 30
0.0
 41
0.9672544604354792
  0
SPLINE
  5
107
330
1F
100
AcDbEntity
  8
Linee visibili 2D
100
AcDbSpline
210
0.0
220
0.0
230
1.0
 70
    12
 71
     2
 72
     6
 73
     3
 74
     0
 42
0.0000000001
 43
0.0000000001
 40
15.80944799439076
 40
15.80944799439076
 40
15.80944799439076
 40
29.84513020910303
 40
29.84513020910303
 40
29.84513020910303
 10
2111.464742627638
 20
2635.56440544151
 30
0.0
 41
0.9672544604354794
 10
2110.720143751742
 20
2634.882685102471
 30
0.0
 41
0.7245141091154681
 10
2101.999434556907
 20
2634.882685102471
 30
0.0
 41
1.0
  0
SPLINE
  5
108
330
1F
100
AcDbEntity
  8
Linee visibili 2D
100
AcDbSpline
210
0.0
220
0.0
230
1.0
 70
    12
 71
     2
 72
     6
 73
     3
 74
     0
 42
0.0000000001
 43
0.0000000001
 40
31.41592653589793
 40
31.41592653589793
 40
31.41592653589793
 40
47.12388980384689
 40
47.12388980384689
 40
47.12388980384689
 10
2101.999434556907
 20
2635.341914221473
 30
0.0
 41
1.0
 10
2111.999434556907
 20
2635.341914221473
 30
0.0
 41
0.7071067811865476
 10
2111.999434556907
 20
2636.126505178751
 30
0.0
 41
1.0
  0
SPLINE
  5
109
330
1F
100
AcDbEntity
  8
Linee visibili 2D
100
AcDbSpline
210
0.0
220
0.0
230
1.0
 70
    12
 71
     2
 72
     6
 73
     3
 74
     0
 42
0.0000000001
 43
0.0000000001
 40
15.70796326794897
 40
15.70796326794897
 40
15.70796326794897
 40
31.41592653589793
 40
31.41592653589793
 40
31.41592653589793
 10
2091.999434556908
 20
2636.126505178751
 30
0.0
 41
1.0
 10
2091.999434556908
 20
2635.341914221473
 30
0.0
 41
0.7071067811865476
 10
2101.999434556907
 20
2635.341914221473
 30
0.0
 41
1.0
  0
SPLINE
  5
10A
330
1F
100
AcDbEntity
  8
Linee visibili 2D
100
AcDbSpline
210
0.0
220
0.0
230
1.0
 70
    12
 71
     2
 72
     8
 73
     5
 74
     0
 42
0.0000000001
 43
0.0000000001
 40
-24.32113739906867
 40
-24.32113739906867
 40
-24.32113739906867
 40
-15.70796326794897
 40
-15.70796326794897
 40
0.0
 40
0.0
 40
0.0
 10
2164.702724419398
 20
2627.588658921627
 30
0.0
 41
0.8549217600549291
 10
2165.510559565881
 20
2628.185692301296
 30
0.0
 41
0.8393973647358942
 10
2162.601042194415
 20
2629.106599908283
 30
0.0
 41
1.0
 10
2156.302207608855
 20
2631.100279252455
 30
0.0
 41
0.7071067811865515
 10
2148.641763177666
 20
2631.100279252455
 30
0.0
 41
1.0
  0
SPLINE
  5
10B
330
1F
100
AcDbEntity
  8
Linee visibili 2D
100
AcDbSpline
210
0.0
220
0.0
230
1.0
 70
    12
 71
     2
 72
     8
 73
     5
 74
     0
 42
0.0000000001
 43
0.0000000001
 40
29.84513020910303
 40
29.84513020910303
 40
29.84513020910303
 40
44.76769531365455
 40
44.76769531365455
 40
59.69026041820607
 40
59.69026041820607
 40
59.69026041820607
 10
2160.860415000502
 20
2626.72264217901
 30
0.0
 41
1.0
 10
2168.137837210132
 20
2626.72264217901
 30
0.0
 41
0.7071067811865476
 10
2162.15394435385
 20
2628.616637555973
 30
0.0
 41
1.0
 10
2156.170051497568
 20
2630.510632932936
 30
0.0
 41
0.7071067811865476
 10
2148.892629287937
 20
2630.510632932936
 30
0.0
 41
1.0
  0
SPLINE
  5
10C
330
1F
100
AcDbEntity
  8
Linee visibili 2D
100
AcDbSpline
210
0.0
220
0.0
230
1.0
 70
    12
 71
     2
 72
     8
 73
     5
 74
     0
 42
0.0000000001
 43
0.0000000001
 40
0.0
 40
0.0
 40
0.0
 40
14.92256510455152
 40
14.92256510455152
 40
29.84513020910303
 40
29.84513020910303
 40
29.84513020910303
 10
2148.892629287937
 20
2630.510632932936
 30
0.0
 41
1.0
 10
2141.615207078307
 20
2630.510632932936
 30
0.0
 41
0.7071067811865476
 10
2147.59909993459
 20
2628.616637555973
 30
0.0
 41
1.0
 10
2153.582992790872
 20
2626.72264217901
 30
0.0
 41
0.7071067811865476
 10
2160.860415000502
 20
2626.72264217901
 30
0.0
 41
1.0
  0
SPLINE
  5
10D
330
1F
100
AcDbEntity
  8
Linee visibili 2D
100
AcDbSpline
210
0.0
220
0.0
230
1.0
 70
    12
 71
     2
 72
     6
 73
     3
 74
     0
 42
0.0000000001
 43
0.0000000001
 40
52.77395607055735
 40
52.77395607055735
 40
52.77395607055735
 40
62.83185307179586
 40
62.83185307179586
 40
62.83185307179586
 10
2145.107419061283
 20
2630.161616241335
 30
0.0
 41
0.9461689560364982
 10
2144.391148071846
 20
2631.100279252455
 30
0.0
 41
0.8505478132194085
 10
2148.641763177666
 20
2631.100279252455
 30
0.0
 41
1.0
  0
SPLINE
  5
10E
330
1F
100
AcDbEntity
  8
Linee visibili 2D
100
AcDbSpline
210
0.0
220
0.0
230
1.0
 70
    12
 71
     2
 72
     6
 73
     3
 74
     0
 42
0.0000000001
 43
0.0000000001
 40
0.0
 40
0.0
 40
0.0
 40
0.4033402519871336
 40
0.4033402519871336
 40
0.4033402519871336
 10
2120.318934709991
 20
2629.46937588728
 30
0.0
 41
1.0
 10
2120.170508071618
 20
2629.626254187524
 30
0.0
 41
0.9036025516984606
 10
2120.198002971055
 20
2629.840462727436
 30
0.0
 41
1.0
  0
SPLINE
  5
10F
330
1F
100
AcDbEntity
  8
Linee visibili 2D
100
AcDbSpline
210
0.0
220
0.0
230
1.0
 70
    12
 71
     2
 72
     8
 73
     5
 74
     0
 42
0.0000000001
 43
0.0000000001
 40
-31.41592653589793
 40
-31.41592653589793
 40
-31.41592653589793
 40
-15.70796326794897
 40
-15.70796326794897
 40
-15.15996050448351
 40
-15.15996050448351
 40
-15.15996050448351
 10
2133.520379002727
 20
2627.112920564111
 30
0.0
 41
1.0
 10
2124.123452794868
 20
2627.112920564111
 30
0.0
 41
0.7071067811865499
 10
2120.77191291564
 20
2629.106599908283
 30
0.0
 41
1.0
 10
2120.530865311612
 20
2629.241358351215
 30
0.0
 41
0.9883217400153143
 10
2120.341601807879
 20
2629.442463078916
 30
0.0
 41
1.0
  0
SPLINE
  5
110
330
1F
100
AcDbEntity
  8
Linee visibili 2D
100
AcDbSpline
210
0.0
220
0.0
230
1.0
 70
    12
 71
     2
 72
     6
 73
     3
 74
     0
 42
0.0000000001
 43
0.0000000001
 40
-43.66152518123556
 40
-43.66152518123556
 40
-43.66152518123556
 40
-31.41592653589793
 40
-31.41592653589793
 40
-31.41592653589793
 10
2140.145396361274
 20
2628.447752522594
 30
0.0
 41
0.9485946660580306
 10
2140.186439180135
 20
2627.112920564112
 30
0.0
 41
0.7943786642321219
 10
2133.520379002727
 20
2627.112920564111
 30
0.0
 41
1.0
  0
SPLINE
  5
111
330
1F
100
AcDbEntity
  8
Linee visibili 2D
100
AcDbSpline
210
0.0
220
0.0
230
1.0
 70
    12
 71
     2
 72
     8
 73
     5
 74
     0
 42
0.0000000001
 43
0.0000000001
 40
29.84513020910303
 40
29.84513020910303
 40
29.84513020910303
 40
44.76769531365455
 40
44.76769531365455
 40
45.32171773665101
 40
45.32171773665101
 40
45.32171773665101
 10
2133.318708084013
 20
2626.72264217901
 30
0.0
 41
1.0
 10
2124.391628186547
 20
2626.722642179009
 30
0.0
 41
0.7071067811865476
 10
2121.207665301281
 20
2628.616637555973
 30
0.0
 41
1.0
 10
2120.96273005231
 20
2628.75178325051
 30
0.0
 41
0.9854021311168147
 10
2120.777336005915
 20
2628.96127473602
 30
0.0
 41
1.0
  0
SPLINE
  5
112
330
1F
100
AcDbEntity
  8
Linee visibili 2D
100
AcDbSpline
210
0.0
220
0.0
230
1.0
 70
    12
 71
     2
 72
     6
 73
     3
 74
     0
 42
0.0000000001
 43
0.0000000001
 40
20.23210152963861
 40
20.23210152963861
 40
20.23210152963861
 40
29.84513020910303
 40
29.84513020910303
 40
29.84513020910303
 10
2139.414142384489
 20
2627.630522158028
 30
0.0
 41
0.8657330293590184
 10
2138.330800212176
 20
2626.72264217901
 30
0.0
 41
0.8113199109705619
 10
2133.318708084013
 20
2626.72264217901
 30
0.0
 41
1.0
  0
SPLINE
  5
113
330
1F
100
AcDbEntity
  8
Linee visibili 2D
100
AcDbSpline
210
0.0
220
0.0
230
1.0
 70
    12
 71
     2
 72
     8
 73
     5
 74
     0
 42
0.0000000001
 43
0.0000000001
 40
29.84513020910303
 40
29.84513020910303
 40
29.84513020910303
 40
44.76769531365455
 40
44.76769531365455
 40
59.69026041820607
 40
59.69026041820607
 40
59.69026041820607
 10
2101.999434556907
 20
2626.72264217901
 30
0.0
 41
1.0
 10
2111.499434556907
 20
2626.72264217901
 30
0.0
 41
0.7071067811865476
 10
2111.499434556907
 20
2628.616637555973
 30
0.0
 41
1.0
 10
2111.499434556907
 20
2630.510632932936
 30
0.0
 41
0.7071067811865476
 10
2101.999434556907
 20
2630.510632932936
 30
0.0
 41
1.0
  0
SPLINE
  5
114
330
1F
100
AcDbEntity
  8
Linee visibili 2D
100
AcDbSpline
210
0.0
220
0.0
230
1.0
 70
    12
 71
     2
 72
     8
 73
     5
 74
     0
 42
0.0000000001
 43
0.0000000001
 40
0.0
 40
0.0
 40
0.0
 40
14.92256510455152
 40
14.92256510455152
 40
29.84513020910303
 40
29.84513020910303
 40
29.84513020910303
 10
2101.999434556907
 20
2630.510632932936
 30
0.0
 41
1.0
 10
2092.499434556907
 20
2630.510632932936
 30
0.0
 41
0.7071067811865476
 10
2092.499434556907
 20
2628.616637555973
 30
0.0
 41
1.0
 10
2092.499434556907
 20
2626.72264217901
 30
0.0
 41
0.7071067811865476
 10
2101.999434556907
 20
2626.72264217901
 30
0.0
 41
1.0
  0
SPLINE
  5
115
330
1F
100
AcDbEntity
  8
Linee visibili 2D
100
AcDbSpline
210
0.0
220
0.0
230
1.0
 70
    12
 71
     2
 72
     8
 73
     5
 74
     0
 42
0.0000000001
 43
0.0000000001
 40
0.0
 40
0.0
 40
0.0
 40
0.4692560418102921
 40
0.4692560418102921
 40
16.17721930975926
 40
16.17721930975926
 40
16.17721930975926
 10
2092.208466972283
 20
2628.701095441501
 30
0.0
 41
1.0
 10
2092.015797092256
 20
2628.858405573601
 30
0.0
 41
0.917069183996511
 10
2091.999434556907
 20
2629.106599908283
 30
0.0
 41
1.0
 10
2091.999434556908
 20
2631.100279252455
 30
0.0
 41
0.7071067811865476
 10
2101.999434556907
 20
2631.100279252455
 30
0.0
 41
1.0
  0
SPLINE
  5
116
330
1F
100
AcDbEntity
  8
Linee visibili 2D
100
AcDbSpline
210
0.0
220
0.0
230
1.0
 70
    12
 71
     2
 72
     8
 73
     5
 74
     0
 42
0.0000000001
 43
0.0000000001
 40
0.0
 40
0.0
 40
0.0
 40
15.70796326794897
 40
15.70796326794897
 40
16.17721930975922
 40
16.17721930975922
 40
16.17721930975922
 10
2101.999434556907
 20
2631.100279252455
 30
0.0
 41
1.0
 10
2111.999434556907
 20
2631.100279252455
 30
0.0
 41
0.7071067811865476
 10
2111.999434556907
 20
2629.106599908283
 30
0.0
 41
1.0
 10
2111.983072021559
 20
2628.858405573601
 30
0.0
 41
0.9170691839965093
 10
2111.790402141532
 20
2628.701095441501
 30
0.0
 41
1.0
  0
SPLINE
  5
117
330
1F
100
AcDbEntity
  8
Linee visibili 2D
100
AcDbSpline
210
0.0
220
0.0
230
1.0
 70
    12
 71
     2
 72
    10
 73
     7
 74
     0
 42
0.0000000001
 43
0.0000000001
 40
0.0
 40
0.0
 40
0.0
 40
0.039393235357938
 40
0.039393235357938
 40
1.610189562152835
 40
1.610189562152835
 40
3.156442196341561
 40
3.156442196341561
 40
3.156442196341561
 10
1942.137925215589
 20
2861.711541409967
 30
0.0
 41
1.0
 10
1942.11822859791
 20
2861.711541409967
 30
0.0
 41
1.0
 10
1942.098531980231
 20
2861.711541409967
 30
0.0
 41
1.0
 10
1942.098531980231
 20
2861.711541522478
 30
0.0
 41
0.7071067811865476
 10
2101.999434556907
 20
2861.711541522478
 30
0.0
 41
1.0
 10
2258.389714049741
 20
2861.711541522478
 30
0.0
 41
0.7116832377305078
 10
2261.860943898226
 20
2861.711541522478
 30
0.0
 41
0.9909901011790784
  0
SPLINE
  5
118
330
1F
100
AcDbEntity
  8
Linee visibili 2D
100
AcDbSpline
210
0.0
220
0.0
230
1.0
 70
    12
 71
     2
 72
    10
 73
     7
 74
     0
 42
0.0000000001
 43
0.0000000001
 40
0.0
 40
0.0
 40
0.0
 40
0.0421276124002936
 40
0.0421276124002936
 40
1.61292393919519
 40
1.61292393919519
 40
3.159176573383917
 40
3.159176573383917
 40
3.159176573383917
 10
1931.041562169309
 20
2872.566437955377
 30
0.0
 41
1.0
 10
1931.020498363109
 20
2872.566437955377
 30
0.0
 41
1.0
 10
1930.999434556909
 20
2872.566437955377
 30
0.0
 41
1.0
 10
1930.999434556909
 20
2872.566439736405
 30
0.0
 41
0.7071067811865476
 10
2101.999434556907
 20
2872.566439736405
 30
0.0
 41
1.0
 10
2269.245130874665
 20
2872.566439736405
 30
0.0
 41
0.7116832377305078
 10
2272.957306944505
 20
2872.566439736405
 30
0.0
 41
0.9909901011790784
  0
SPLINE
  5
119
330
1F
100
AcDbEntity
  8
Linee visibili 2D
100
AcDbSpline
210
0.0
220
0.0
230
1.0
 70
    12
 71
     2
 72
    10
 73
     7
 74
     0
 42
0.0000000001
 43
0.0000000001
 40
0.0
 40
0.0
 40
0.0
 40
0.0421276124002936
 40
0.0421276124002936
 40
1.61292393919519
 40
1.61292393919519
 40
3.159176573383917
 40
3.159176573383917
 40
3.159176573383917
 10
1931.041562169309
 20
2874.066437955377
 30
0.0
 41
1.0
 10
1931.020498363109
 20
2874.066437955377
 30
0.0
 41
1.0
 10
1930.999434556909
 20
2874.066437955377
 30
0.0
 41
1.0
 10
1930.999434556909
 20
2874.066439736405
 30
0.0
 41
0.7071067811865476
 10
2101.999434556907
 20
2874.066439736405
 30
0.0
 41
1.0
 10
2269.245130874665
 20
2874.066439736405
 30
0.0
 41
0.7116832377305078
 10
2272.957306944505
 20
2874.066439736405
 30
0.0
 41
0.9909901011790784
  0
SPLINE
  5
11A
330
1F
100
AcDbEntity
  8
Linee visibili 2D
100
AcDbSpline
210
0.0
220
0.0
230
1.0
 70
    12
 71
     2
 72
    10
 73
     7
 74
     0
 42
0.0000000001
 43
0.0000000001
 40
0.0
 40
0.0
 40
0.0
 40
0.0413885314809903
 40
0.0413885314809903
 40
1.612184858275887
 40
1.612184858275887
 40
3.158437492464613
 40
3.158437492464613
 40
3.158437492464613
 10
1934.04082308839
 20
2879.566439862725
 30
0.0
 41
1.0
 10
1934.020128822649
 20
2879.566439862725
 30
0.0
 41
1.0
 10
1933.999434556909
 20
2879.566439862725
 30
0.0
 41
1.0
 10
1933.999434556909
 20
2879.566439736405
 30
0.0
 41
0.7071067811865476
 10
2101.999434556907
 20
2879.566439736405
 30
0.0
 41
1.0
 10
2266.310995851547
 20
2879.566439736405
 30
0.0
 41
0.7116832377305078
 10
2269.958046025425
 20
2879.566439736405
 30
0.0
 41
0.9909901011790784
  0
SPLINE
  5
11B
330
1F
100
AcDbEntity
  8
Linee visibili 2D
100
AcDbSpline
210
0.0
220
0.0
230
1.0
 70
    28
 71
     2
 72
    10
 73
     7
 74
     0
 42
0.0000000001
 43
0.0000000001
 40
1.546252634188726
 40
1.546252634188726
 40
1.546252634188726
 40
1.570796326794897
 40
1.570796326794897
 40
3.141592653589793
 40
3.141592653589793
 40
4.687845287778519
 40
4.687845287778519
 40
4.687845287778519
 10
1932.041315809003
 20
2881.0
 30
0.0
 41
0.9909901011790784
 10
1931.999434556909
 20
2881.0
 30
0.0
 41
0.9954235434560398
 10
1931.999434556909
 20
2881.0
 30
0.0
 41
1.0
 10
1931.999434556909
 20
2881.0
 30
0.0
 41
0.7071067811865476
 10
2101.999434556907
 20
2881.0
 30
0.0
 41
1.0
 10
2268.267085866959
 20
2881.0
 30
0.0
 41
0.7116832377305078
 10
2271.957553304812
 20
2881.0
 30
0.0
 41
0.9909901011790784
  0
SPLINE
  5
11C
330
1F
100
AcDbEntity
  8
Linee visibili 2D
100
AcDbSpline
210
0.0
220
0.0
230
1.0
 70
    24
 71
     2
 72
     6
 73
     3
 74
     0
 42
0.0000000001
 43
0.0000000001
 40
0.0
 40
0.0
 40
0.0
 40
657.5777058356457
 40
657.5777058356457
 40
657.5777058356457
 10
2099.499434556908
 20
2910.152709132957
 30
0.0
 10
2099.499434556908
 20
3238.94156205078
 30
0.0
 10
2099.499434556908
 20
3567.730414968603
 30
0.0
  0
SPLINE
  5
11D
330
1F
100
AcDbEntity
  8
Linee visibili 2D
100
AcDbSpline
210
0.0
220
0.0
230
1.0
 70
    12
 71
     2
 72
     6
 73
     3
 74
     0
 42
0.0000000001
 43
0.0000000001
 40
0.0
 40
0.0
 40
0.0
 40
179.8734523485918
 40
179.8734523485918
 40
179.8734523485918
 10
2101.992334751302
 20
2534.000000078473
 30
0.0
 41
1.0
 10
2009.628701835628
 20
2534.002052562133
 30
0.0
 41
0.9610486776249079
 10
1931.376632595309
 20
2583.069907102577
 30
0.0
 41
1.0
  0
SPLINE
  5
11E
330
1F
100
AcDbEntity
  8
Linee visibili 2D
100
AcDbSpline
210
0.0
220
0.0
230
1.0
 70
    12
 71
     2
 72
     6
 73
     3
 74
     0
 42
0.0000000001
 43
0.0000000001
 40
0.0
 40
0.0
 40
0.0
 40
179.9228057841143
 40
179.9228057841143
 40
179.9228057841143
 10
2272.664049458478
 20
2583.096130344858
 30
0.0
 41
1.0
 10
2194.39688668897
 20
2534.002056200762
 30
0.0
 41
0.9610274472025837
 10
2102.006536111505
 20
2534.000000078512
 30
0.0
 41
1.0
  0
SPLINE
  5
11F
330
1F
100
AcDbEntity
  8
Linee visibili 2D
100
AcDbSpline
210
0.0
220
0.0
230
1.0
 70
    12
 71
     2
 72
     6
 73
     3
 74
     0
 42
0.0000000001
 43
0.0000000001
 40
0.0
 40
0.0
 40
0.0
 40
173.7896219769027
 40
173.7896219769027
 40
173.7896219769027
 10
1931.334819655337
 20
2583.096130344858
 30
0.0
 41
1.0
 10
1853.928903266633
 20
2631.649976442061
 30
0.0
 41
0.9280702180480805
 10
1831.555357582683
 20
2720.242167499367
 30
0.0
 41
1.0
  0
SPLINE
  5
120
330
1F
100
AcDbEntity
  8
Linee visibili 2D
100
AcDbSpline
210
0.0
220
0.0
230
1.0
 70
    12
 71
     2
 72
     6
 73
     3
 74
     0
 42
0.0000000001
 43
0.0000000001
 40
0.0
 40
0.0
 40
0.0
 40
73.0415795598196
 40
73.0415795598196
 40
73.0415795598196
 10
1831.553347224276
 20
2720.250128482084
 30
0.0
 41
1.0
 10
1822.430441718979
 20
2756.379875245029
 30
0.0
 41
0.9703603048527014
 10
1831.317953623231
 20
2792.568245451006
 30
0.0
 41
1.0
  0
SPLINE
  5
121
330
1F
100
AcDbEntity
  8
Linee visibili 2D
100
AcDbSpline
210
0.0
220
0.0
230
1.0
 70
    12
 71
     2
 72
     6
 73
     3
 74
     0
 42
0.0000000001
 43
0.0000000001
 40
0.0
 40
0.0
 40
0.0
 40
133.8749039757342
 40
133.8749039757342
 40
133.8749039757342
 10
1831.317953623231
 20
2792.568245451007
 30
0.0
 41
1.0
 10
1848.995410313866
 20
2864.545727989831
 30
0.0
 41
0.8608443817461298
 10
1920.57821667542
 20
2883.759064531941
 30
0.0
 41
1.0
  0
SPLINE
  5
122
330
1F
100
AcDbEntity
  8
Linee visibili 2D
100
AcDbSpline
210
0.0
220
0.0
230
1.0
 70
    24
 71
     2
 72
     6
 73
     3
 74
     0
 42
0.0000000001
 43
0.0000000001
 40
0.0
 40
0.0
 40
0.0
 40
357.9163931456244
 40
357.9163931456244
 40
357.9163931456244
 10
1923.041237903998
 20
2884.083858410761
 30
0.0
 10
2101.99943447681
 20
2884.083858410761
 30
0.0
 10
2280.957631049623
 20
2884.083858410761
 30
0.0
  0
SPLINE
  5
123
330
1F
100
AcDbEntity
  8
Linee visibili 2D
100
AcDbSpline
210
0.0
220
0.0
230
1.0
 70
    12
 71
     2
 72
     6
 73
     3
 74
     0
 42
0.0000000001
 43
0.0000000001
 40
0.0
 40
0.0
 40
0.0
 40
2.316437201818335
 40
2.316437201818335
 40
2.316437201818335
 10
1920.747681394316
 20
2883.802885731631
 30
0.0
 41
1.0
 10
1921.877246240952
 20
2884.083883684517
 30
0.0
 41
0.9925770104214054
 10
1923.041237903999
 20
2884.083858410761
 30
0.0
 41
1.0
  0
SPLINE
  5
124
330
1F
100
AcDbEntity
  8
Linee visibili 2D
100
AcDbSpline
210
0.0
220
0.0
230
1.0
 70
    24
 71
     2
 72
     6
 73
     3
 74
     0
 42
0.0000000001
 43
0.0000000001
 40
0.0
 40
0.0
 40
0.0
 40
661.7446513011384
 40
661.7446513011384
 40
661.7446513011384
 10
2178.675695493722
 20
2905.96689022134
 30
0.0
 10
2178.675695493722
 20
3236.839215871909
 30
0.0
 10
2178.675695493722
 20
3567.711541522478
 30
0.0
  0
SPLINE
  5
125
330
1F
100
AcDbEntity
  8
Linee visibili 2D
100
AcDbSpline
210
0.0
220
0.0
230
1.0
 70
    24
 71
     2
 72
     6
 73
     3
 74
     0
 42
0.0000000001
 43
0.0000000001
 40
0.0
 40
0.0
 40
0.0
 40
661.8704295801734
 40
661.8704295801734
 40
661.8704295801734
 10
2179.475695493722
 20
3567.711541522478
 30
0.0
 10
2179.475695493722
 20
3236.776326732392
 30
0.0
 10
2179.475695493722
 20
2905.841111942305
 30
0.0
  0
SPLINE
  5
126
330
1F
100
AcDbEntity
  8
Linee visibili 2D
100
AcDbSpline
210
0.0
220
0.0
230
1.0
 70
    24
 71
     2
 72
     6
 73
     3
 74
     0
 42
0.0000000001
 43
0.0000000001
 40
0.0
 40
0.0
 40
0.0
 40
661.8704295801733
 40
661.8704295801733
 40
661.8704295801733
 10
2024.523173620093
 20
2905.841111942304
 30
0.0
 10
2024.523173620093
 20
3236.776326732391
 30
0.0
 10
2024.523173620093
 20
3567.711541522478
 30
0.0
  0
SPLINE
  5
127
330
1F
100
AcDbEntity
  8
Linee visibili 2D
100
AcDbSpline
210
0.0
220
0.0
230
1.0
 70
    24
 71
     2
 72
     6
 73
     3
 74
     0
 42
0.0000000001
 43
0.0000000001
 40
0.0
 40
0.0
 40
0.0
 40
661.7446513022855
 40
661.7446513022855
 40
661.7446513022855
 10
2025.323173620093
 20
3567.711541522478
 30
0.0
 10
2025.323173620093
 20
3236.839215871335
 30
0.0
 10
2025.323173620093
 20
2905.966890220192
 30
0.0
  0
SPLINE
  5
128
330
1F
100
AcDbEntity
  8
Linee visibili 2D
100
AcDbSpline
210
0.0
220
0.0
230
1.0
 70
    24
 71
     2
 72
     6
 73
     3
 74
     0
 42
0.0000000001
 43
0.0000000001
 40
0.0
 40
0.0
 40
0.0
 40
93.99269203432573
 40
93.99269203432573
 40
93.99269203432573
 10
2148.995780574066
 20
2910.15270913265
 30
0.0
 10
2101.999434556903
 20
2910.15270913265
 30
0.0
 10
2055.00308853974
 20
2910.15270913265
 30
0.0
  0
SPLINE
  5
129
330
1F
100
AcDbEntity
  8
Linee visibili 2D
100
AcDbSpline
210
0.0
220
0.0
230
1.0
 70
    12
 71
     2
 72
     6
 73
     3
 74
     0
 42
0.0000000001
 43
0.0000000001
 40
0.0
 40
0.0
 40
0.0
 40
29.97490286715513
 40
29.97490286715513
 40
29.97490286715513
 10
2025.323173620092
 20
2905.966890220192
 30
0.0
 41
1.0
 10
2040.129706534392
 20
2908.296799338009
 30
0.0
 41
0.9998724979763339
 10
2055.00308853963
 20
2910.15270913265
 30
0.0
 41
1.0
  0
SPLINE
  5
12A
330
1F
100
AcDbEntity
  8
Linee visibili 2D
100
AcDbSpline
210
0.0
220
0.0
230
1.0
 70
     8
 71
     3
 72
    14
 73
    10
 74
     0
 42
0.0000000001
 43
0.0000000001
 40
0.0
 40
0.0
 40
0.0
 40
0.0
 40
1.959859918234338
 40
3.943525208116532
 40
4.218063881141398
 40
4.705446267332237
 40
11.75449961563776
 40
21.40237393697054
 40
96.47683128309674
 40
96.47683128309674
 40
96.47683128309674
 40
96.47683128309674
 10
1931.999434556909
 20
2884.083858410761
 30
0.0
 10
1931.964950292942
 20
2884.735138979504
 30
0.0
 10
1932.225017058011
 20
2886.084373850184
 30
0.0
 10
1933.379523947455
 20
2887.04873102247
 30
0.0
 10
1934.245164166174
 20
2887.327974309118
 30
0.0
 10
1936.773115292723
 20
2887.961993593917
 30
0.0
 10
1942.328575159002
 20
2889.350610026612
 30
0.0
 10
1972.072459878469
 20
2896.502290456625
 30
0.0
 10
1999.803233348232
 20
2901.94535343095
 30
0.0
 10
2024.523173620813
 20
2905.841111942251
 30
0.0
  0
SPLINE
  5
12B
330
1F
100
AcDbEntity
  8
Linee visibili 2D
100
AcDbSpline
210
0.0
220
0.0
230
1.0
 70
     8
 71
     3
 72
    15
 73
    11
 74
     0
 42
0.0000000001
 43
0.0000000001
 40
0.0
 40
0.0
 40
0.0
 40
0.0
 40
18.78430585087019
 40
38.0872195387696
 40
75.0796568959704
 40
85.52791756787036
 40
91.97719768984496
 40
92.56489818801887
 40
94.49628652085958
 40
96.47660908553227
 40
96.47660908553227
 40
96.47660908553227
 40
96.47660908553227
 10
2179.475695493002
 20
2905.841111942251
 30
0.0
 10
2185.660631106925
 20
2904.865900677632
 30
0.0
 10
2198.18347201291
 20
2902.772706774878
 30
0.0
 10
2222.784655383634
 20
2898.174839032299
 30
0.0
 10
2244.536078460103
 20
2893.479018954357
 30
0.0
 10
2261.99781371789
 20
2889.267377470819
 30
0.0
 10
2267.657210418567
 20
2887.864450112108
 30
0.0
 10
2270.548327695368
 20
2887.115503820279
 30
0.0
 10
2271.769256320275
 20
2886.074760997838
 30
0.0
 10
2272.035581199147
 20
2884.743361588816
 30
0.0
 10
2271.999434556906
 20
2884.083858410761
 30
0.0
  0
SPLINE
  5
12C
330
1F
100
AcDbEntity
  8
Linee visibili 2D
100
AcDbSpline
210
0.0
220
0.0
230
1.0
 70
    12
 71
     2
 72
     6
 73
     3
 74
     0
 42
0.0000000001
 43
0.0000000001
 40
0.0
 40
0.0
 40
0.0
 40
29.97490286225786
 40
29.97490286225786
 40
29.97490286225786
 10
2148.995780574066
 20
2910.15270913265
 30
0.0
 41
1.0
 10
2163.869162576876
 20
2908.296799338341
 30
0.0
 41
0.999872497976354
 10
2178.675695488766
 20
2905.96689022097
 30
0.0
 41
1.0
  0
SPLINE
  5
12D
330
1F
100
AcDbEntity
  8
Linee visibili 2D
100
AcDbSpline
210
0.0
220
0.0
230
1.0
 70
    24
 71
     2
 72
     6
 73
     3
 74
     0
 42
0.0000000001
 43
0.0000000001
 40
0.0
 40
0.0
 40
0.0
 40
33.0
 40
33.0
 40
33.0
 10
2201.999434556908
 20
3610.711541522478
 30
0.0
 10
2201.999434556908
 20
3594.211541522478
 30
0.0
 10
2201.999434556908
 20
3577.711541522478
 30
0.0
  0
SPLINE
  5
12E
330
1F
100
AcDbEntity
  8
Linee visibili 2D
100
AcDbSpline
210
0.0
220
0.0
230
1.0
 70
    24
 71
     2
 72
     6
 73
     3
 74
     0
 42
0.0000000001
 43
0.0000000001
 40
0.0
 40
0.0
 40
0.0
 40
33.0
 40
33.0
 40
33.0
 10
2001.999434556908
 20
3577.711541522478
 30
0.0
 10
2001.999434556908
 20
3594.211541522478
 30
0.0
 10
2001.999434556908
 20
3610.711541522478
 30
0.0
  0
SPLINE
  5
12F
330
1F
100
AcDbEntity
  8
Linee visibili 2D
100
AcDbSpline
210
0.0
220
0.0
230
1.0
 70
    24
 71
     2
 72
     6
 73
     3
 74
     0
 42
0.0000000001
 43
0.0000000001
 40
0.0
 40
0.0
 40
0.0
 40
10.0
 40
10.0
 40
10.0
 10
2226.999434556908
 20
3577.711541522478
 30
0.0
 10
2226.999434556908
 20
3572.711541522478
 30
0.0
 10
2226.999434556908
 20
3567.711541522478
 30
0.0
  0
SPLINE
  5
130
330
1F
100
AcDbEntity
  8
Linee visibili 2D
100
AcDbSpline
210
0.0
220
0.0
230
1.0
 70
    24
 71
     2
 72
     6
 73
     3
 74
     0
 42
0.0000000001
 43
0.0000000001
 40
0.0
 40
0.0
 40
0.0
 40
10.0
 40
10.0
 40
10.0
 10
1976.999434556908
 20
3567.711541522478
 30
0.0
 10
1976.999434556908
 20
3572.711541522478
 30
0.0
 10
1976.999434556908
 20
3577.711541522478
 30
0.0
  0
SPLINE
  5
131
330
1F
100
AcDbEntity
  8
Linee visibili 2D
100
AcDbSpline
210
0.0
220
0.0
230
1.0
 70
    24
 71
     2
 72
     6
 73
     3
 74
     0
 42
0.0000000001
 43
0.0000000001
 40
0.0
 40
0.0
 40
0.0
 40
657.5588323900486
 40
657.5588323900486
 40
657.5588323900486
 10
2104.499434556908
 20
2910.152709132442
 30
0.0
 10
2104.499434556908
 20
3238.932125327467
 30
0.0
 10
2104.499434556908
 20
3567.711541522491
 30
0.0
  0
SPLINE
  5
132
330
1F
100
AcDbEntity
  8
Linee visibili 2D
100
AcDbSpline
210
0.0
220
0.0
230
1.0
 70
    12
 71
     2
 72
     6
 73
     3
 74
     0
 42
0.0000000001
 43
0.0000000001
 40
0.0
 40
0.0
 40
0.0
 40
173.7978296072956
 40
173.7978296072956
 40
173.7978296072956
 10
2272.664049458478
 20
2583.096130344858
 30
0.0
 41
1.0
 10
2350.073992099079
 20
2631.652517732282
 30
0.0
 41
0.928063558222305
 10
2372.445521889539
 20
2720.250128482084
 30
0.0
 41
1.0
  0
SPLINE
  5
133
330
1F
100
AcDbEntity
  8
Linee visibili 2D
100
AcDbSpline
210
0.0
220
0.0
230
1.0
 70
    12
 71
     2
 72
     6
 73
     3
 74
     0
 42
0.0000000001
 43
0.0000000001
 40
0.0
 40
0.0
 40
0.0
 40
73.04159721349745
 40
73.04159721349745
 40
73.04159721349745
 10
2372.445521889539
 20
2720.250128482084
 30
0.0
 41
1.0
 10
2381.568541019677
 20
2756.379874875183
 30
0.0
 41
0.9703595898063906
 10
2372.680915490584
 20
2792.568245451006
 30
0.0
 41
1.0
  0
SPLINE
  5
134
330
1F
100
AcDbEntity
  8
Linee visibili 2D
100
AcDbSpline
210
0.0
220
0.0
230
1.0
 70
    12
 71
     2
 72
     6
 73
     3
 74
     0
 42
0.0000000001
 43
0.0000000001
 40
0.0
 40
0.0
 40
0.0
 40
133.8749870159785
 40
133.8749870159785
 40
133.8749870159785
 10
2283.420652438395
 20
2883.759064531941
 30
0.0
 41
1.0
 10
2355.0036691515
 20
2864.545933888133
 30
0.0
 41
0.8608426420248482
 10
2372.680915490584
 20
2792.568245451007
 30
0.0
 41
1.0
  0
SPLINE
  5
135
330
1F
100
AcDbEntity
  8
Linee visibili 2D - Tangent
100
AcDbSpline
210
0.0
220
0.0
230
1.0
 70
    24
 71
     2
 72
     6
 73
     3
 74
     0
 42
0.0000000001
 43
0.0000000001
 40
0.0
 40
0.0
 40
0.0
 40
362.797740776145
 40
362.797740776145
 40
362.797740776145
 10
1920.62291166225
 20
2883.759064531941
 30
0.0
 10
2102.021782050323
 20
2883.759064531941
 30
0.0
 10
2283.420652438396
 20
2883.759064531941
 30
0.0
  0
SPLINE
  5
136
330
1F
100
AcDbEntity
  8
Linee visibili 2D
100
AcDbSpline
210
0.0
220
0.0
230
1.0
 70
    12
 71
     2
 72
     6
 73
     3
 74
     0
 42
0.0000000001
 43
0.0000000001
 40
0.0
 40
0.0
 40
0.0
 40
2.269192948667326
 40
2.269192948667326
 40
2.269192948667326
 10
2281.004065632656
 20
2884.083744944407
 30
0.0
 41
1.0
 10
2282.144072450144
 20
2884.078173509154
 30
0.0
 41
0.9928785975421132
 10
2283.250403104622
 20
2883.803075221683
 30
0.0
 41
1.0
  0
SPLINE
  5
137
330
1F
100
AcDbEntity
  8
Linee visibili 2D
100
AcDbSpline
210
0.0
220
0.0
230
1.0
 70
    28
 71
     2
 72
    10
 73
     7
 74
     0
 42
0.0000000001
 43
0.0000000001
 40
1.546252634188726
 40
1.546252634188726
 40
1.546252634188726
 40
1.570796326794897
 40
1.570796326794897
 40
3.141592653589793
 40
3.141592653589793
 40
4.687845287778519
 40
4.687845287778519
 40
4.687845287778519
 10
2226.968639518603
 20
3577.711541522478
 30
0.0
 41
0.9909901011790784
 10
2226.999434556908
 20
3577.711541522478
 30
0.0
 41
0.9954235434560398
 10
2226.999434556908
 20
3577.711541522478
 30
0.0
 41
1.0
 10
2226.999434556908
 20
3577.711541522478
 30
0.0
 41
0.7071067811865476
 10
2101.999434556908
 20
3577.711541522478
 30
0.0
 41
1.0
 10
1979.743808593633
 20
3577.711541522478
 30
0.0
 41
0.7116832377305078
 10
1977.030229595212
 20
3577.711541522478
 30
0.0
 41
0.9909901011790784
  0
SPLINE
  5
138
330
1F
100
AcDbEntity
  8
Linee visibili 2D
100
AcDbSpline
210
0.0
220
0.0
230
1.0
 70
    28
 71
     2
 72
    10
 73
     7
 74
     0
 42
0.0000000001
 43
0.0000000001
 40
1.546252634188726
 40
1.546252634188726
 40
1.546252634188726
 40
1.570796326794897
 40
1.570796326794897
 40
3.141592653589793
 40
3.141592653589793
 40
4.687845287778519
 40
4.687845287778519
 40
4.687845287778519
 10
2226.968639518603
 20
3567.711541522478
 30
0.0
 41
0.9909901011790784
 10
2226.999434556908
 20
3567.711541522478
 30
0.0
 41
0.9954235434560398
 10
2226.999434556908
 20
3567.711541522478
 30
0.0
 41
1.0
 10
2226.999434556908
 20
3567.711541522478
 30
0.0
 41
0.7071067811865476
 10
2101.999434556908
 20
3567.711541522478
 30
0.0
 41
1.0
 10
1979.743808593633
 20
3567.711541522478
 30
0.0
 41
0.7116832377305078
 10
1977.030229595212
 20
3567.711541522478
 30
0.0
 41
0.9909901011790784
  0
SPLINE
  5
139
330
1F
100
AcDbEntity
  8
Linee visibili 2D
100
AcDbSpline
210
0.0
220
0.0
230
1.0
 70
    24
 71
     2
 72
     6
 73
     3
 74
     0
 42
0.0000000001
 43
0.0000000001
 40
0.0
 40
0.0
 40
0.0
 40
200.0
 40
200.0
 40
200.0
 10
2201.999434556908
 20
3610.711541522478
 30
0.0
 10
2101.999434556908
 20
3610.711541522478
 30
0.0
 10
2001.999434556908
 20
3610.711541522478
 30
0.0
  0
SPLINE
  5
13A
330
1F
100
AcDbEntity
  8
Linee visibili 2D
100
AcDbSpline
210
0.0
220
0.0
230
1.0
 70
    24
 71
     2
 72
     6
 73
     3
 74
     0
 42
0.0000000001
 43
0.0000000001
 40
0.0
 40
0.0
 40
0.0
 40
657.5673956275089
 40
657.5673956275089
 40
657.5673956275089
 10
2101.999434556908
 20
3567.711541502049
 30
0.0
 10
2101.999434556908
 20
3238.927843688295
 30
0.0
 10
2101.999434556908
 20
2910.144145874541
 30
0.0
  0
SPLINE
  5
13B
330
1F
100
AcDbEntity
  8
Linee visibili 2D
100
AcDbSpline
210
0.0
220
0.0
230
1.0
 70
    24
 71
     2
 72
     6
 73
     3
 74
     0
 42
0.0000000001
 43
0.0000000001
 40
0.0
 40
0.0
 40
0.0
 40
0.5786372080284334
 40
0.5786372080284334
 40
0.5786372080284334
 10
1354.089811247979
 20
2635.611455389451
 30
0.0
 10
1353.876891317695
 20
2635.415571857941
 30
0.0
 10
1353.663971387412
 20
2635.219688326431
 30
0.0
  0
SPLINE
  5
13C
330
1F
100
AcDbEntity
  8
Linee visibili 2D
100
AcDbSpline
210
0.0
220
0.0
230
1.0
 70
    24
 71
     2
 72
     6
 73
     3
 74
     0
 42
0.0000000001
 43
0.0000000001
 40
0.0
 40
0.0
 40
0.0
 40
223.5163542826998
 40
223.5163542826998
 40
223.5163542826998
 10
1362.988037052608
 20
2859.109197504566
 30
0.0
 10
1358.593658415145
 20
2747.437448192809
 30
0.0
 10
1354.199279777681
 20
2635.765698881051
 30
0.0
  0
SPLINE
  5
13D
330
1F
100
AcDbEntity
  8
Linee visibili 2D
100
AcDbSpline
210
0.0
220
0.0
230
1.0
 70
    24
 71
     2
 72
     6
 73
     3
 74
     0
 42
0.0000000001
 43
0.0000000001
 40
0.0
 40
0.0
 40
0.0
 40
0.2258097232454744
 40
0.2258097232454744
 40
0.2258097232454744
 10
1351.746220962546
 20
2628.070040845743
 30
0.0
 10
1351.662089486229
 20
2627.994745411148
 30
0.0
 10
1351.577958009911
 20
2627.919449976554
 30
0.0
  0
SPLINE
  5
13E
330
1F
100
AcDbEntity
  8
Linee visibili 2D
100
AcDbSpline
210
0.0
220
0.0
230
1.0
 70
    24
 71
     2
 72
     6
 73
     3
 74
     0
 42
0.0000000001
 43
0.0000000001
 40
0.0
 40
0.0
 40
0.0
 40
0.483662026237883
 40
0.483662026237883
 40
0.483662026237883
 10
1332.969030578613
 20
2628.572102142735
 30
0.0
 10
1332.800659804324
 20
2628.745692238281
 30
0.0
 10
1332.632289030036
 20
2628.919282333827
 30
0.0
  0
SPLINE
  5
13F
330
1F
100
AcDbEntity
  8
Linee visibili 2D
100
AcDbSpline
210
0.0
220
0.0
230
1.0
 70
    24
 71
     2
 72
     6
 73
     3
 74
     0
 42
0.0000000001
 43
0.0000000001
 40
0.0
 40
0.0
 40
0.0
 40
229.7928001268805
 40
229.7928001268805
 40
229.7928001268805
 10
1332.307650973874
 20
2629.459670845187
 30
0.0
 10
1336.364308935603
 20
2744.284434174878
 30
0.0
 10
1340.420966897331
 20
2859.10919750457
 30
0.0
  0
SPLINE
  5
140
330
1F
100
AcDbEntity
  8
Linee visibili 2D
100
AcDbSpline
210
0.0
220
0.0
230
1.0
 70
    24
 71
     2
 72
     6
 73
     3
 74
     0
 42
0.0000000001
 43
0.0000000001
 40
0.0
 40
0.0
 40
0.0
 40
230.4993825476553
 40
230.4993825476553
 40
230.4993825476553
 10
1360.433444473015
 20
2859.109197504603
 30
0.0
 10
1356.364312825423
 20
2743.931363237991
 30
0.0
 10
1352.29518117783
 20
2628.753528971379
 30
0.0
  0
SPLINE
  5
141
330
1F
100
AcDbEntity
  8
Linee visibili 2D
100
AcDbSpline
210
0.0
220
0.0
230
1.0
 70
    24
 71
     2
 72
     6
 73
     3
 74
     0
 42
0.0000000001
 43
0.0000000001
 40
0.0
 40
0.0
 40
0.0
 40
0.3647389695756631
 40
0.3647389695756631
 40
0.3647389695756631
 10
1296.467209142462
 20
2629.591989482668
 30
0.0
 10
1296.349809090862
 20
2629.452433555291
 30
0.0
 10
1296.232409039263
 20
2629.312877627914
 30
0.0
  0
SPLINE
  5
142
330
1F
100
AcDbEntity
  8
Linee visibili 2D
100
AcDbSpline
210
0.0
220
0.0
230
1.0
 70
    24
 71
     2
 72
     6
 73
     3
 74
     0
 42
0.0000000001
 43
0.0000000001
 40
0.0
 40
0.0
 40
0.0
 40
0.0142013904956131
 40
0.0142013904956131
 40
0.0142013904956131
 10
1277.065672728176
 20
2627.800328876214
 30
0.0
 10
1277.060101123729
 20
2627.804730818612
 30
0.0
 10
1277.054529519281
 20
2627.809132761011
 30
0.0
  0
SPLINE
  5
143
330
1F
100
AcDbEntity
  8
Linee visibili 2D
100
AcDbSpline
210
0.0
220
0.0
230
1.0
 70
    24
 71
     2
 72
     6
 73
     3
 74
     0
 42
0.0000000001
 43
0.0000000001
 40
0.0
 40
0.0
 40
0.0
 40
0.3419364557534857
 40
0.3419364557534857
 40
0.3419364557534857
 10
1277.592400856686
 20
2627.384178213818
 30
0.0
 10
1277.458249579156
 20
2627.490166749428
 30
0.0
 10
1277.324098301627
 20
2627.596155285037
 30
0.0
  0
SPLINE
  5
144
330
1F
100
AcDbEntity
  8
Linee visibili 2D
100
AcDbSpline
210
0.0
220
0.0
230
1.0
 70
    24
 71
     2
 72
     6
 73
     3
 74
     0
 42
0.0000000001
 43
0.0000000001
 40
0.0
 40
0.0
 40
0.0
 40
232.2000082637467
 40
232.2000082637467
 40
232.2000082637467
 10
1276.869170168955
 20
2628.101371633707
 30
0.0
 10
1265.119401829384
 20
2743.605284569102
 30
0.0
 10
1253.369633489813
 20
2859.109197504498
 30
0.0
  0
SPLINE
  5
145
330
1F
100
AcDbEntity
  8
Linee visibili 2D
100
AcDbSpline
210
0.0
220
0.0
230
1.0
 70
    24
 71
     2
 72
     6
 73
     3
 74
     0
 42
0.0000000001
 43
0.0000000001
 40
0.0
 40
0.0
 40
0.0
 40
230.1667299668355
 40
230.1667299668355
 40
230.1667299668355
 10
1273.472849247843
 20
2859.109197504566
 30
0.0
 10
1285.119729783329
 20
2744.616703996482
 30
0.0
 10
1296.766610318815
 20
2630.124210488398
 30
0.0
  0
SPLINE
  5
146
330
1F
100
AcDbEntity
  8
Linee visibili 2D
100
AcDbSpline
210
0.0
220
0.0
230
1.0
 70
    24
 71
     2
 72
     6
 73
     3
 74
     0
 42
0.0000000001
 43
0.0000000001
 40
0.0
 40
0.0
 40
0.0
 40
0.7071067811862105
 40
0.7071067811862105
 40
0.7071067811862105
 10
1305.556000287953
 20
2636.91109613603
 30
0.0
 10
1305.326385728452
 20
2636.642252028665
 30
0.0
 10
1305.096771168951
 20
2636.3734079213
 30
0.0
  0
SPLINE
  5
147
330
1F
100
AcDbEntity
  8
Linee visibili 2D
100
AcDbSpline
210
0.0
220
0.0
230
1.0
 70
    24
 71
     2
 72
     6
 73
     3
 74
     0
 42
0.0000000001
 43
0.0000000001
 40
0.0
 40
0.0
 40
0.0
 40
0.5810797572843619
 40
0.5810797572843619
 40
0.5810797572843619
 10
1400.799229460496
 20
2627.369012210289
 30
0.0
 10
1400.563177859063
 20
2627.199621943324
 30
0.0
 10
1400.32712625763
 20
2627.03023167636
 30
0.0
  0
SPLINE
  5
148
330
1F
100
AcDbEntity
  8
Linee visibili 2D
100
AcDbSpline
210
0.0
220
0.0
230
1.0
 70
    24
 71
     2
 72
     6
 73
     3
 74
     0
 42
0.0000000001
 43
0.0000000001
 40
0.0
 40
0.0
 40
0.0
 40
0.5487907695236536
 40
0.5487907695236536
 40
0.5487907695236536
 10
1381.683531113903
 20
2629.912085439198
 30
0.0
 10
1381.51985336272
 20
2630.13231809106
 30
0.0
 10
1381.356175611538
 20
2630.352550742922
 30
0.0
  0
SPLINE
  5
149
330
1F
100
AcDbEntity
  8
Linee visibili 2D
100
AcDbSpline
210
0.0
220
0.0
230
1.0
 70
    24
 71
     2
 72
     6
 73
     3
 74
     0
 42
0.0000000001
 43
0.0000000001
 40
0.0
 40
0.0
 40
0.0
 40
231.2127400036366
 40
231.2127400036366
 40
231.2127400036366
 10
1381.212767730972
 20
2630.654429078477
 30
0.0
 10
1399.015505746313
 20
2744.881813291522
 30
0.0
 10
1416.818243761654
 20
2859.109197504566
 30
0.0
  0
SPLINE
  5
14A
330
1F
100
AcDbEntity
  8
Linee visibili 2D
100
AcDbSpline
210
0.0
220
0.0
230
1.0
 70
    24
 71
     2
 72
     6
 73
     3
 74
     0
 42
0.0000000001
 43
0.0000000001
 40
0.0
 40
0.0
 40
0.0
 40
0.5498651091912502
 40
0.5498651091912502
 40
0.5498651091912502
 10
1260.341138281912
 20
2630.829644755969
 30
0.0
 10
1260.186165116885
 20
2630.602551762467
 30
0.0
 10
1260.031191951858
 20
2630.375458768964
 30
0.0
  0
SPLINE
  5
14B
330
1F
100
AcDbEntity
  8
Linee visibili 2D
100
AcDbSpline
210
0.0
220
0.0
230
1.0
 70
    24
 71
     2
 72
     6
 73
     3
 74
     0
 42
0.0000000001
 43
0.0000000001
 40
0.0
 40
0.0
 40
0.0
 40
0.5826080152762013
 40
0.5826080152762013
 40
0.5826080152762013
 10
1241.394033772758
 20
2626.795694608097
 30
0.0
 10
1241.15265362722
 20
2626.958770204696
 30
0.0
 10
1240.911273481682
 20
2627.121845801295
 30
0.0
  0
SPLINE
  5
14C
330
1F
100
AcDbEntity
  8
Linee visibili 2D
100
AcDbSpline
210
0.0
220
0.0
230
1.0
 70
    24
 71
     2
 72
     6
 73
     3
 74
     0
 42
0.0000000001
 43
0.0000000001
 40
0.0
 40
0.0
 40
0.0
 40
236.056664876672
 40
236.056664876672
 40
236.056664876672
 10
1240.778124808568
 20
2627.251791780836
 30
0.0
 10
1218.61457114631
 20
2743.180494642701
 30
0.0
 10
1196.451017484052
 20
2859.109197504566
 30
0.0
  0
SPLINE
  5
14D
330
1F
100
AcDbEntity
  8
Linee visibili 2D
100
AcDbSpline
210
0.0
220
0.0
230
1.0
 70
    24
 71
     2
 72
     6
 73
     3
 74
     0
 42
0.0000000001
 43
0.0000000001
 40
0.0
 40
0.0
 40
0.0
 40
212.0621671409378
 40
212.0621671409378
 40
212.0621671409378
 10
1404.67255900905
 20
2651.304241007724
 30
0.0
 10
1425.811757124511
 20
2755.206719256142
 30
0.0
 10
1446.950955239973
 20
2859.10919750456
 30
0.0
  0
SPLINE
  5
14E
330
1F
100
AcDbEntity
  8
Linee visibili 2D
100
AcDbSpline
210
0.0
220
0.0
230
1.0
 70
    24
 71
     2
 72
     6
 73
     3
 74
     0
 42
0.0000000001
 43
0.0000000001
 40
0.0
 40
0.0
 40
0.0
 40
15.49466130655406
 40
15.49466130655406
 40
15.49466130655406
 10
1168.098531980231
 20
2861.711541522478
 30
0.0
 10
1162.559749440118
 20
2867.128461332162
 30
0.0
 10
1157.020966900005
 20
2872.545381141846
 30
0.0
  0
SPLINE
  5
14F
330
1F
100
AcDbEntity
  8
Linee visibili 2D
100
AcDbSpline
210
0.0
220
0.0
230
1.0
 70
    24
 71
     2
 72
     6
 73
     3
 74
     0
 42
0.0000000001
 43
0.0000000001
 40
0.0
 40
0.0
 40
0.0
 40
1.500000000000057
 40
1.500000000000057
 40
1.500000000000057
 10
1156.999434556909
 20
2872.566439736405
 30
0.0
 10
1156.999434556909
 20
2873.316439736405
 30
0.0
 10
1156.999434556909
 20
2874.066439736405
 30
0.0
  0
SPLINE
  5
150
330
1F
100
AcDbEntity
  8
Linee visibili 2D
100
AcDbSpline
210
0.0
220
0.0
230
1.0
 70
    24
 71
     2
 72
     6
 73
     3
 74
     0
 42
0.0000000001
 43
0.0000000001
 40
0.0
 40
0.0
 40
0.0
 40
5.499999999999886
 40
5.499999999999886
 40
5.499999999999886
 10
1165.266836928724
 20
2874.066439736405
 30
0.0
 10
1165.266836928724
 20
2876.816439736405
 30
0.0
 10
1165.266836928724
 20
2879.566439736405
 30
0.0
  0
SPLINE
  5
151
330
1F
100
AcDbEntity
  8
Linee visibili 2D
100
AcDbSpline
210
0.0
220
0.0
230
1.0
 70
    24
 71
     2
 72
     6
 73
     3
 74
     0
 42
0.0000000001
 43
0.0000000001
 40
0.0
 40
0.0
 40
0.0
 40
1.433560263595041
 40
1.433560263595041
 40
1.433560263595041
 10
1159.999434556909
 20
2879.566439736405
 30
0.0
 10
1159.999434556909
 20
2880.283219868203
 30
0.0
 10
1159.999434556909
 20
2881.0
 30
0.0
  0
SPLINE
  5
152
330
1F
100
AcDbEntity
  8
Linee visibili 2D
100
AcDbSpline
210
0.0
220
0.0
230
1.0
 70
    24
 71
     2
 72
     6
 73
     3
 74
     0
 42
0.0000000001
 43
0.0000000001
 40
0.0
 40
0.0
 40
0.0
 40
93.94799249236405
 40
93.94799249236405
 40
93.94799249236405
 10
1281.00308853975
 20
2910.15270913265
 30
0.0
 10
1327.977084785932
 20
2910.15270913265
 30
0.0
 10
1374.951081032114
 20
2910.15270913265
 30
0.0
  0
SPLINE
  5
153
330
1F
100
AcDbEntity
  8
Linee visibili 2D
100
AcDbSpline
210
0.0
220
0.0
230
1.0
 70
     8
 71
     3
 72
    14
 73
    10
 74
     0
 42
0.0000000001
 43
0.0000000001
 40
0.0
 40
0.0
 40
0.0
 40
0.0
 40
3.416865008861605
 40
3.516784374976419
 40
4.161458049125922
 40
6.553793168932804
 40
7.68616861451399
 40
22.87847018590998
 40
130.3460620827769
 40
130.3460620827769
 40
130.3460620827769
 40
130.3460620827769
 10
1157.999434556909
 20
2881.0
 30
0.0
 10
1158.0032686265
 20
2882.152517373895
 30
0.0
 10
1157.993702436376
 20
2883.291156489608
 30
0.0
 10
1158.002032065769
 20
2884.706941619646
 30
0.0
 10
1158.145184037631
 20
2885.699875532369
 30
0.0
 10
1159.045019837893
 20
2887.004198304418
 30
0.0
 10
1165.093632655282
 20
2888.566449045559
 30
0.0
 10
1205.172486896504
 20
2898.355487058269
 30
0.0
 10
1245.460555001318
 20
2905.702378850974
 30
0.0
 10
1281.00308853975
 20
2910.15270913265
 30
0.0
  0
SPLINE
  5
154
330
1F
100
AcDbEntity
  8
Linee visibili 2D
100
AcDbSpline
210
0.0
220
0.0
230
1.0
 70
    24
 71
     3
 72
     8
 73
     4
 74
     0
 42
0.0000000001
 43
0.0000000001
 40
0.0
 40
0.0
 40
0.0
 40
0.0
 40
303.9865595736719
 40
303.9865595736719
 40
303.9865595736719
 40
303.9865595736719
 10
1479.986133127321
 20
2859.109197504566
 30
0.0
 10
1378.657279936096
 20
2859.109197504567
 30
0.0
 10
1277.328426744874
 20
2859.109197504567
 30
0.0
 10
1175.999573553648
 20
2859.109197504566
 30
0.0
  0
SPLINE
  5
155
330
1F
100
AcDbEntity
  8
Linee visibili 2D
100
AcDbSpline
210
0.0
220
0.0
230
1.0
 70
     8
 71
     3
 72
    16
 73
    12
 74
     0
 42
0.0000000001
 43
0.0000000001
 40
0.0
 40
0.0
 40
0.0
 40
0.0
 40
0.4309332313260275
 40
0.9235138016641015
 40
1.814373816626538
 40
2.669821974597582
 40
3.051474243282474
 40
3.17420631079891
 40
3.202520351042832
 40
3.240242389902816
 40
3.74289721447718
 40
3.74289721447718
 40
3.74289721447718
 40
3.74289721447718
 10
1175.999573553797
 20
2859.109197504566
 30
0.0
 10
1175.855695407825
 20
2859.10925962305
 30
0.0
 10
1175.548705685018
 20
2859.145206538833
 30
0.0
 10
1174.972852051215
 20
2859.345435959599
 30
0.0
 10
1174.379858297058
 20
2859.828860216504
 30
0.0
 10
1174.064615226039
 20
2860.48274925487
 30
0.0
 10
1174.001859085037
 20
2860.9337555737
 30
0.0
 10
1173.999528834494
 20
2861.111387095217
 30
0.0
 10
1173.999580563804
 20
2861.174298577683
 30
0.0
 10
1173.999562293909
 20
2861.363867150978
 30
0.0
 10
1173.999579918934
 20
2861.543988387125
 30
0.0
 10
1173.999573553642
 20
2861.711541522478
 30
0.0
  0
SPLINE
  5
156
330
1F
100
AcDbEntity
  8
Linee visibili 2D
100
AcDbSpline
210
0.0
220
0.0
230
1.0
 70
    12
 71
     2
 72
     6
 73
     3
 74
     0
 42
0.0000000001
 43
0.0000000001
 40
0.0
 40
0.0
 40
0.0
 40
1.674122168362921
 40
1.674122168362921
 40
1.674122168362921
 10
1354.173625084
 20
2635.688567002986
 30
0.0
 41
1.0
 10
1353.377887517237
 20
2635.396996601643
 30
0.0
 41
0.9816716087800289
 10
1352.5308554608
 20
2635.424351116164
 30
0.0
 41
1.0
  0
SPLINE
  5
157
330
1F
100
AcDbEntity
  8
Linee visibili 2D
100
AcDbSpline
210
0.0
220
0.0
230
1.0
 70
    12
 71
     2
 72
     6
 73
     3
 74
     0
 42
0.0000000001
 43
0.0000000001
 40
0.0
 40
0.0
 40
0.0
 40
0.0755215274617287
 40
0.0755215274617287
 40
0.0755215274617287
 10
1354.187897222515
 20
2635.766146794265
 30
0.0
 41
1.0
 10
1354.214922368391
 20
2635.729069940028
 30
0.0
 41
0.7544940769827321
 10
1354.181946556248
 20
2635.697169353149
 30
0.0
 41
1.0
  0
SPLINE
  5
158
330
1F
100
AcDbEntity
  8
Linee visibili 2D
100
AcDbSpline
210
0.0
220
0.0
230
1.0
 70
    12
 71
     2
 72
     6
 73
     3
 74
     0
 42
0.0000000001
 43
0.0000000001
 40
0.0
 40
0.0
 40
0.0
 40
1.180083424610467
 40
1.180083424610467
 40
1.180083424610467
 10
1353.663521373623
 20
2635.220177478856
 30
0.0
 41
1.0
 10
1353.115311158587
 20
2634.976490753151
 30
0.0
 41
0.9754554419092325
 10
1352.515578677222
 20
2634.991937790111
 30
0.0
 41
1.0
  0
SPLINE
  5
159
330
1F
100
AcDbEntity
  8
Linee visibili 2D
100
AcDbSpline
210
0.0
220
0.0
230
1.0
 70
    12
 71
     2
 72
     8
 73
     5
 74
     0
 42
0.0000000001
 43
0.0000000001
 40
-31.41592653589793
 40
-31.41592653589793
 40
-31.41592653589793
 40
-15.70796326794896
 40
-15.70796326794896
 40
-15.3298339284852
 40
-15.3298339284852
 40
-15.3298339284852
 10
1344.003037467934
 20
2627.112920564111
 30
0.0
 41
1.0
 10
1334.154959937812
 20
2627.112920564111
 30
0.0
 41
0.7071067811865474
 10
1332.45333854573
 20
2629.106599908283
 30
0.0
 41
1.0
 10
1332.316753322529
 20
2629.249363918397
 30
0.0
 41
0.9366026388482239
 10
1332.307411131706
 20
2629.4467209787
 30
0.0
 41
1.0
  0
SPLINE
  5
15A
330
1F
100
AcDbEntity
  8
Linee visibili 2D
100
AcDbSpline
210
0.0
220
0.0
230
1.0
 70
    12
 71
     2
 72
     6
 73
     3
 74
     0
 42
0.0000000001
 43
0.0000000001
 40
-45.21749498769515
 40
-45.21749498769515
 40
-45.21749498769515
 40
-31.41592653589793
 40
-31.41592653589793
 40
-31.41592653589793
 10
1352.294715802031
 20
2628.743823923912
 30
0.0
 41
0.9653757272974152
 10
1352.195905643631
 20
2627.112920564111
 30
0.0
 41
0.7553272284126684
 10
1344.003037467934
 20
2627.112920564111
 30
0.0
 41
1.0
  0
SPLINE
  5
15B
330
1F
100
AcDbEntity
  8
Linee visibili 2D
100
AcDbSpline
210
0.0
220
0.0
230
1.0
 70
    12
 71
     2
 72
     6
 73
     3
 74
     0
 42
0.0000000001
 43
0.0000000001
 40
29.84513020910303
 40
29.84513020910303
 40
29.84513020910303
 40
44.52074888856401
 40
44.52074888856401
 40
44.52074888856401
 10
1343.900646459082
 20
2626.72264217901
 30
0.0
 41
1.0
 10
1334.762434393294
 20
2626.72264217901
 30
0.0
 41
0.7119537316144725
 10
1332.96903036767
 20
2628.572102371835
 30
0.0
 41
0.990466518894023
  0
SPLINE
  5
15C
330
1F
100
AcDbEntity
  8
Linee visibili 2D
100
AcDbSpline
210
0.0
220
0.0
230
1.0
 70
    12
 71
     2
 72
     6
 73
     3
 74
     0
 42
0.0000000001
 43
0.0000000001
 40
18.6532063806894
 40
18.6532063806894
 40
18.6532063806894
 40
29.84513020910303
 40
29.84513020910303
 40
29.84513020910303
 10
1351.577941988792
 20
2627.919467877778
 30
0.0
 41
0.8901650429449554
 10
1350.258975199696
 20
2626.72264217901
 30
0.0
 41
0.7803300858899107
 10
1343.900646459082
 20
2626.72264217901
 30
0.0
 41
1.0
  0
SPLINE
  5
15D
330
1F
100
AcDbEntity
  8
Linee visibili 2D
100
AcDbSpline
210
0.0
220
0.0
230
1.0
 70
    12
 71
     2
 72
     6
 73
     3
 74
     0
 42
0.0000000001
 43
0.0000000001
 40
0.0
 40
0.0
 40
0.0
 40
0.3564439948762335
 40
0.3564439948762335
 40
0.3564439948762335
 10
1277.054449999004
 20
2627.809195595145
 30
0.0
 41
1.0
 10
1276.896651167217
 20
2627.914068022606
 30
0.0
 41
0.9132881806475199
 10
1276.869235522209
 20
2628.101543567048
 30
0.0
 41
1.0
  0
SPLINE
  5
15E
330
1F
100
AcDbEntity
  8
Linee visibili 2D
100
AcDbSpline
210
0.0
220
0.0
230
1.0
 70
    12
 71
     2
 72
     6
 73
     3
 74
     0
 42
0.0000000001
 43
0.0000000001
 40
-31.41592653589793
 40
-31.41592653589793
 40
-31.41592653589793
 40
-22.91798448133087
 40
-22.91798448133087
 40
-22.91798448133087
 10
1281.918896522914
 20
2627.112920564111
 30
0.0
 41
1.0
 10
1277.966075808134
 20
2627.112920564111
 30
0.0
 41
0.8654306986369972
 10
1277.065788378098
 20
2627.800388611766
 30
0.0
 41
0.9050036909829436
  0
SPLINE
  5
15F
330
1F
100
AcDbEntity
  8
Linee visibili 2D
100
AcDbSpline
210
0.0
220
0.0
230
1.0
 70
    12
 71
     2
 72
     8
 73
     5
 74
     0
 42
0.0000000001
 43
0.0000000001
 40
0.0
 40
0.0
 40
0.0
 40
1.386456998987201
 40
1.386456998987201
 40
17.09442026693617
 40
17.09442026693617
 40
17.09442026693617
 10
1296.656027519066
 20
2629.816793225319
 30
0.0
 41
1.0
 10
1296.148335199191
 20
2629.327535493381
 30
0.0
 41
0.9749958301156799
 10
1295.478774083863
 20
2629.106599908283
 30
0.0
 41
1.0
 10
1290.579150560759
 20
2627.112920564111
 30
0.0
 41
0.7071067811865474
 10
1281.918896522914
 20
2627.112920564111
 30
0.0
 41
1.0
  0
SPLINE
  5
160
330
1F
100
AcDbEntity
  8
Linee visibili 2D
100
AcDbSpline
210
0.0
220
0.0
230
1.0
 70
    12
 71
     2
 72
     6
 73
     3
 74
     0
 42
0.0000000001
 43
0.0000000001
 40
0.0
 40
0.0
 40
0.0
 40
0.3059173950509841
 40
0.3059173950509841
 40
0.3059173950509841
 10
1296.766547552576
 20
2630.124291384517
 30
0.0
 41
1.0
 10
1296.777825805828
 20
2629.963716271675
 30
0.0
 41
0.9269856498884493
 10
1296.674263477895
 20
2629.840483118289
 30
0.0
 41
1.0
  0
SPLINE
  5
161
330
1F
100
AcDbEntity
  8
Linee visibili 2D
100
AcDbSpline
210
0.0
220
0.0
230
1.0
 70
    12
 71
     2
 72
     6
 73
     3
 74
     0
 42
0.0000000001
 43
0.0000000001
 40
29.84513020910303
 40
29.84513020910303
 40
29.84513020910303
 40
37.9990633269479
 40
37.9990633269479
 40
37.9990633269479
 10
1282.213719682674
 20
2626.72264217901
 30
0.0
 41
1.0
 10
1278.429249026783
 20
2626.722642179009
 30
0.0
 41
0.8399583650570396
 10
1277.592400192134
 20
2627.384178776587
 30
0.0
 41
0.8548154527200762
  0
SPLINE
  5
162
330
1F
100
AcDbEntity
  8
Linee visibili 2D
100
AcDbSpline
210
0.0
220
0.0
230
1.0
 70
    12
 71
     2
 72
     8
 73
     5
 74
     0
 42
0.0000000001
 43
0.0000000001
 40
0.0
 40
0.0
 40
0.0
 40
1.345397855043855
 40
1.345397855043855
 40
16.26796295959537
 40
16.26796295959537
 40
16.26796295959537
 10
1296.231303996623
 20
2629.313807234168
 30
0.0
 41
1.0
 10
1295.748428495949
 20
2628.826797053483
 30
0.0
 41
0.9715497671858294
 10
1295.095603365575
 20
2628.616637555973
 30
0.0
 41
1.0
 10
1290.440961018626
 20
2626.72264217901
 30
0.0
 41
0.7071067811865476
 10
1282.213719682674
 20
2626.72264217901
 30
0.0
 41
1.0
  0
SPLINE
  5
163
330
1F
100
AcDbEntity
  8
Linee visibili 2D
100
AcDbSpline
210
0.0
220
0.0
230
1.0
 70
    24
 71
     2
 72
     6
 73
     3
 74
     0
 42
0.0000000001
 43
0.0000000001
 40
0.0
 40
0.0
 40
0.0
 40
8.92216087333075
 40
8.92216087333075
 40
8.92216087333075
 10
1305.096771168951
 20
2636.3734079213
 30
0.0
 10
1300.649442754461
 20
2636.02339558427
 30
0.0
 10
1296.202114339972
 20
2635.67338324724
 30
0.0
  0
SPLINE
  5
164
330
1F
100
AcDbEntity
  8
Linee visibili 2D
100
AcDbSpline
210
0.0
220
0.0
230
1.0
 70
    24
 71
     2
 72
     6
 73
     3
 74
     0
 42
0.0000000001
 43
0.0000000001
 40
0.0
 40
0.0
 40
0.0
 40
222.8851820004751
 40
222.8851820004751
 40
222.8851820004751
 10
1305.556000287954
 20
2636.911096136029
 30
0.0
 10
1296.812315372507
 20
2748.010146820297
 30
0.0
 10
1288.06863045706
 20
2859.109197504566
 30
0.0
  0
SPLINE
  5
165
330
1F
100
AcDbEntity
  8
Linee visibili 2D
100
AcDbSpline
210
0.0
220
0.0
230
1.0
 70
    24
 71
     2
 72
     6
 73
     3
 74
     0
 42
0.0000000001
 43
0.0000000001
 40
0.0
 40
0.0
 40
0.0
 40
9.433581659711653
 40
9.433581659711653
 40
9.433581659711653
 10
1296.1514992122
 20
2636.170945849534
 30
0.0
 10
1300.853749750077
 20
2636.541020992782
 30
0.0
 10
1305.556000287954
 20
2636.91109613603
 30
0.0
  0
SPLINE
  5
166
330
1F
100
AcDbEntity
  8
Linee visibili 2D
100
AcDbSpline
210
0.0
220
0.0
230
1.0
 70
    12
 71
     2
 72
     8
 73
     5
 74
     0
 42
0.0000000001
 43
0.0000000001
 40
-31.41592653589793
 40
-31.41592653589793
 40
-31.41592653589793
 40
-15.70796326794897
 40
-15.70796326794897
 40
-6.872233929727672
 40
-6.872233929727672
 40
-6.872233929727672
 10
1398.598914750649
 20
2627.112920564111
 30
0.0
 41
1.0
 10
1392.171038653784
 20
2627.112920564111
 30
0.0
 41
0.7071067811865515
 10
1384.664379907286
 20
2629.106599908283
 30
0.0
 41
1.0
 10
1381.089684977868
 20
2630.055996395211
 30
0.0
 41
0.8352475644174352
 10
1381.212959297691
 20
2630.654399222133
 30
0.0
 41
0.8558416188652558
  0
SPLINE
  5
167
330
1F
100
AcDbEntity
  8
Linee visibili 2D
100
AcDbSpline
210
0.0
220
0.0
230
1.0
 70
    12
 71
     2
 72
     6
 73
     3
 74
     0
 42
0.0000000001
 43
0.0000000001
 40
-38.29756851758987
 40
-38.29756851758987
 40
-38.29756851758987
 40
-31.41592653589793
 40
-31.41592653589793
 40
-31.41592653589793
 10
1400.972973148998
 20
2627.566655525023
 30
0.0
 41
1.0
 10
1400.902256965719
 20
2627.112920564111
 30
0.0
 41
0.9413854871547518
 10
1398.598914750649
 20
2627.112920564111
 30
0.0
 41
1.0
  0
SPLINE
  5
168
330
1F
100
AcDbEntity
  8
Linee visibili 2D
100
AcDbSpline
210
0.0
220
0.0
230
1.0
 70
    12
 71
     2
 72
     8
 73
     5
 74
     0
 42
0.0000000001
 43
0.0000000001
 40
29.84513020910303
 40
29.84513020910303
 40
29.84513020910303
 40
44.76769531365455
 40
44.76769531365455
 40
51.93896402580155
 40
51.93896402580155
 40
51.93896402580155
 10
1398.147219464176
 20
2626.72264217901
 30
0.0
 41
1.0
 10
1392.040737172154
 20
2626.72264217901
 30
0.0
 41
0.7071067811865476
 10
1384.909411362981
 20
2628.616637555973
 30
0.0
 41
1.0
 10
1382.089142886229
 20
2629.365667343659
 30
0.0
 41
0.8592456483613335
 10
1381.683529943089
 20
2629.912087137124
 30
0.0
 41
0.8537746439130284
  0
SPLINE
  5
169
330
1F
100
AcDbEntity
  8
Linee visibili 2D
100
AcDbSpline
210
0.0
220
0.0
230
1.0
 70
    12
 71
     2
 72
     6
 73
     3
 74
     0
 42
0.0000000001
 43
0.0000000001
 40
24.24916829489622
 40
24.24916829489622
 40
24.24916829489622
 40
29.84513020910303
 40
29.84513020910303
 40
29.84513020910303
 10
1400.326308015387
 20
2627.031371927185
 30
0.0
 41
0.8627063036811942
 10
1399.966236793648
 20
2626.72264217901
 30
0.0
 41
0.8901650429449554
 10
1398.147219464176
 20
2626.72264217901
 30
0.0
 41
1.0
  0
SPLINE
  5
16A
330
1F
100
AcDbEntity
  8
Linee visibili 2D
100
AcDbSpline
210
0.0
220
0.0
230
1.0
 70
    24
 71
     2
 72
     6
 73
     3
 74
     0
 42
0.0000000001
 43
0.0000000001
 40
0.0
 40
0.0
 40
0.0
 40
234.3377900462492
 40
234.3377900462492
 40
234.3377900462492
 10
1400.972973148998
 20
2627.566655525023
 30
0.0
 10
1419.016331327365
 20
2743.337926514794
 30
0.0
 10
1437.059689505732
 20
2859.109197504566
 30
0.0
  0
SPLINE
  5
16B
330
1F
100
AcDbEntity
  8
Linee visibili 2D
100
AcDbSpline
210
0.0
220
0.0
230
1.0
 70
    12
 71
     2
 72
     6
 73
     3
 74
     0
 42
0.0000000001
 43
0.0000000001
 40
-31.41592653589793
 40
-31.41592653589793
 40
-31.41592653589793
 40
-27.48893571891069
 40
-27.48893571891069
 40
-27.48893571891069
 10
1241.396351452134
 20
2627.112920564111
 30
0.0
 41
1.0
 10
1240.743970021215
 20
2627.112920564111
 30
0.0
 41
0.9267766952966374
 10
1240.783922391739
 20
2627.252900178003
 30
0.0
 41
0.8901650429449561
  0
SPLINE
  5
16C
330
1F
100
AcDbEntity
  8
Linee visibili 2D
100
AcDbSpline
210
0.0
220
0.0
230
1.0
 70
    12
 71
     2
 72
     8
 73
     5
 74
     0
 42
0.0000000001
 43
0.0000000001
 40
-59.40586629666966
 40
-59.40586629666966
 40
-59.40586629666966
 40
-45.41089641628379
 40
-45.41089641628379
 40
-31.41592653589793
 40
-31.41592653589793
 40
-31.41592653589793
 10
1260.426739593674
 20
2630.984416293924
 30
0.0
 41
1.0
 10
1260.534534747699
 20
2630.420582868505
 30
0.0
 41
0.7650041876938536
 10
1252.405105983381
 20
2628.766751716308
 30
0.0
 41
1.0
 10
1244.275677219065
 20
2627.112920564111
 30
0.0
 41
0.7650041876938536
 10
1241.396351452134
 20
2627.112920564111
 30
0.0
 41
1.0
  0
SPLINE
  5
16D
330
1F
100
AcDbEntity
  8
Linee visibili 2D
100
AcDbSpline
210
0.0
220
0.0
230
1.0
 70
    12
 71
     2
 72
     6
 73
     3
 74
     0
 42
0.0000000001
 43
0.0000000001
 40
0.0
 40
0.0
 40
0.0
 40
0.5660068370991653
 40
0.5660068370991653
 40
0.5660068370991653
 10
1241.950437747459
 20
2626.72264217901
 30
0.0
 41
1.0
 10
1241.663802338737
 20
2626.694870864867
 30
0.0
 41
0.9742909914643445
 10
1241.394072799034
 20
2626.795752373749
 30
0.0
 41
1.0
  0
SPLINE
  5
16E
330
1F
100
AcDbEntity
  8
Linee visibili 2D
100
AcDbSpline
210
0.0
220
0.0
230
1.0
 70
    12
 71
     2
 72
     8
 73
     5
 74
     0
 42
0.0000000001
 43
0.0000000001
 40
3.730641276137879
 40
3.730641276137879
 40
3.730641276137879
 40
14.92256510455152
 40
14.92256510455152
 40
29.84513020910303
 40
29.84513020910303
 40
29.84513020910303
 10
1260.027977618137
 20
2630.37765229974
 30
0.0
 41
0.8901650429449554
 10
1259.89274415631
 20
2629.903839919566
 30
0.0
 41
0.7803300858899107
 10
1253.947495240704
 20
2628.616637555973
 30
0.0
 41
1.0
 10
1245.199629109053
 20
2626.722642179009
 30
0.0
 41
0.7071067811865476
 10
1241.950437747459
 20
2626.72264217901
 30
0.0
 41
1.0
  0
SPLINE
  5
16F
330
1F
100
AcDbEntity
  8
Linee visibili 2D
100
AcDbSpline
210
0.0
220
0.0
230
1.0
 70
    24
 71
     2
 72
     6
 73
     3
 74
     0
 42
0.0000000001
 43
0.0000000001
 40
0.0
 40
0.0
 40
0.0
 40
232.2564373556091
 40
232.2564373556091
 40
232.2564373556091
 10
1260.426739593674
 20
2630.984416293924
 30
0.0
 10
1238.619992406826
 20
2745.046806898404
 30
0.0
 10
1216.813245219977
 20
2859.109197502883
 30
0.0
  0
SPLINE
  5
170
330
1F
100
AcDbEntity
  8
Linee visibili 2D
100
AcDbSpline
210
0.0
220
0.0
230
1.0
 70
    24
 71
     2
 72
     6
 73
     3
 74
     0
 42
0.0000000001
 43
0.0000000001
 40
0.0
 40
0.0
 40
0.0
 40
18.52570831179424
 40
18.52570831179424
 40
18.52570831179424
 10
1419.570864305369
 20
2626.72264217901
 30
0.0
 10
1410.493964682706
 20
2628.569358278879
 30
0.0
 10
1401.417065060043
 20
2630.416074378747
 30
0.0
  0
SPLINE
  5
171
330
1F
100
AcDbEntity
  8
Linee visibili 2D
100
AcDbSpline
210
0.0
220
0.0
230
1.0
 70
    24
 71
     2
 72
     6
 73
     3
 74
     0
 42
0.0000000001
 43
0.0000000001
 40
0.0
 40
0.0
 40
0.0
 40
236.7490847475092
 40
236.7490847475092
 40
236.7490847475092
 10
1420.160510624889
 20
2627.112920564111
 30
0.0
 10
1443.760598625525
 20
2743.111059034338
 30
0.0
 10
1467.360686626162
 20
2859.109197504566
 30
0.0
  0
SPLINE
  5
172
330
1F
100
AcDbEntity
  8
Linee visibili 2D
100
AcDbSpline
210
0.0
220
0.0
230
1.0
 70
    24
 71
     2
 72
     6
 73
     3
 74
     0
 42
0.0000000001
 43
0.0000000001
 40
0.0
 40
0.0
 40
0.0
 40
19.04877624301275
 40
19.04877624301275
 40
19.04877624301275
 10
1401.494144191566
 20
2630.910635736856
 30
0.0
 10
1410.827327408227
 20
2629.011778150484
 30
0.0
 10
1420.160510624889
 20
2627.112920564111
 30
0.0
  0
SPLINE
  5
173
330
1F
100
AcDbEntity
  8
Linee visibili 2D
100
AcDbSpline
210
0.0
220
0.0
230
1.0
 70
    12
 71
     2
 72
    10
 73
     7
 74
     0
 42
0.0000000001
 43
0.0000000001
 40
0.0
 40
0.0
 40
0.0
 40
0.0393932353579363
 40
0.0393932353579363
 40
1.610189562152833
 40
1.610189562152833
 40
3.180985888947729
 40
3.180985888947729
 40
3.180985888947729
 10
1168.137925215589
 20
2861.711541409967
 30
0.0
 41
1.0
 10
1168.11822859791
 20
2861.711541409966
 30
0.0
 41
1.0
 10
1168.098531980231
 20
2861.711541409966
 30
0.0
 41
1.0
 10
1168.098531980231
 20
2861.711541522478
 30
0.0
 41
0.7071067811865476
 10
1327.999434556908
 20
2861.711541522478
 30
0.0
 41
1.0
 10
1487.900337133584
 20
2861.711541522478
 30
0.0
 41
0.7071067811865476
 10
1487.900337133584
 20
2861.711541522478
 30
0.0
 41
1.0
  0
SPLINE
  5
174
330
1F
100
AcDbEntity
  8
Linee visibili 2D
100
AcDbSpline
210
0.0
220
0.0
230
1.0
 70
    12
 71
     2
 72
    10
 73
     7
 74
     0
 42
0.0000000001
 43
0.0000000001
 40
0.0
 40
0.0
 40
0.0
 40
0.0421276124002939
 40
0.0421276124002939
 40
1.61292393919519
 40
1.61292393919519
 40
3.183720213413535
 40
3.183720213413535
 40
3.183720213413535
 10
1157.04156216931
 20
2872.566437955377
 30
0.0
 41
1.0
 10
1157.020498363109
 20
2872.566437955377
 30
0.0
 41
1.0
 10
1156.999434556909
 20
2872.566437955377
 30
0.0
 41
1.0
 10
1156.999434556909
 20
2872.566439736405
 30
0.0
 41
0.7071067811865476
 10
1327.999434556908
 20
2872.566439736405
 30
0.0
 41
1.0
 10
1498.999426462531
 20
2872.566439736405
 30
0.0
 41
0.7071067909900564
 10
1498.999434556906
 20
2872.566439736405
 30
0.0
 41
0.9999999803929831
  0
SPLINE
  5
175
330
1F
100
AcDbEntity
  8
Linee visibili 2D
100
AcDbSpline
210
0.0
220
0.0
230
1.0
 70
    12
 71
     2
 72
    10
 73
     7
 74
     0
 42
0.0000000001
 43
0.0000000001
 40
0.0
 40
0.0
 40
0.0
 40
0.0421276124002939
 40
0.0421276124002939
 40
1.61292393919519
 40
1.61292393919519
 40
3.183720213413535
 40
3.183720213413535
 40
3.183720213413535
 10
1157.04156216931
 20
2874.066437955377
 30
0.0
 41
1.0
 10
1157.020498363109
 20
2874.066437955377
 30
0.0
 41
1.0
 10
1156.999434556909
 20
2874.066437955377
 30
0.0
 41
1.0
 10
1156.999434556909
 20
2874.066439736405
 30
0.0
 41
0.7071067811865476
 10
1327.999434556908
 20
2874.066439736405
 30
0.0
 41
1.0
 10
1498.999426462531
 20
2874.066439736405
 30
0.0
 41
0.7071067909900564
 10
1498.999434556906
 20
2874.066439736405
 30
0.0
 41
0.9999999803929831
  0
SPLINE
  5
176
330
1F
100
AcDbEntity
  8
Linee visibili 2D
100
AcDbSpline
210
0.0
220
0.0
230
1.0
 70
    12
 71
     2
 72
    10
 73
     7
 74
     0
 42
0.0000000001
 43
0.0000000001
 40
0.0
 40
0.0
 40
0.0
 40
0.0413885314809912
 40
0.0413885314809912
 40
1.612184858275888
 40
1.612184858275888
 40
3.182981185070784
 40
3.182981185070784
 40
3.182981185070784
 10
1160.04082308839
 20
2879.566439862725
 30
0.0
 41
1.0
 10
1160.02012882265
 20
2879.566439862725
 30
0.0
 41
1.0
 10
1159.999434556909
 20
2879.566439862725
 30
0.0
 41
1.0
 10
1159.999434556909
 20
2879.566439736405
 30
0.0
 41
0.7071067811865476
 10
1327.999434556908
 20
2879.566439736405
 30
0.0
 41
1.0
 10
1495.999434556906
 20
2879.566439736405
 30
0.0
 41
0.7071067811865476
 10
1495.999434556906
 20
2879.566439736405
 30
0.0
 41
1.0
  0
SPLINE
  5
177
330
1F
100
AcDbEntity
  8
Linee visibili 2D
100
AcDbSpline
210
0.0
220
0.0
230
1.0
 70
    28
 71
     2
 72
    10
 73
     7
 74
     0
 42
0.0000000001
 43
0.0000000001
 40
3.117048960983623
 40
3.117048960983623
 40
3.117048960983623
 40
3.141592653589793
 40
3.141592653589793
 40
4.71238898038469
 40
4.71238898038469
 40
6.283185307179586
 40
6.283185307179586
 40
6.283185307179586
 10
1158.041315809003
 20
2881.0
 30
0.0
 41
0.9909901011790784
 10
1157.999434556909
 20
2881.0
 30
0.0
 41
0.9954235434560398
 10
1157.999434556909
 20
2881.0
 30
0.0
 41
1.0
 10
1157.999434556909
 20
2881.0
 30
0.0
 41
0.7071067811865476
 10
1327.999434556908
 20
2881.0
 30
0.0
 41
1.0
 10
1497.999434556906
 20
2881.0
 30
0.0
 41
0.7071067811865476
 10
1497.999434556906
 20
2881.0
 30
0.0
 41
1.0
  0
SPLINE
  5
178
330
1F
100
AcDbEntity
  8
Linee visibili 2D
100
AcDbSpline
210
0.0
220
0.0
230
1.0
 70
    24
 71
     2
 72
     6
 73
     3
 74
     0
 42
0.0000000001
 43
0.0000000001
 40
0.0
 40
0.0
 40
0.0
 40
0.7071067811863
 40
0.7071067811863
 40
0.7071067811863
 10
1419.570864305369
 20
2626.72264217901
 30
0.0
 10
1419.865687465129
 20
2626.917781371561
 30
0.0
 10
1420.160510624889
 20
2627.112920564111
 30
0.0
  0
SPLINE
  5
179
330
1F
100
AcDbEntity
  8
Linee visibili 2D
100
AcDbSpline
210
0.0
220
0.0
230
1.0
 70
    12
 71
     3
 72
    14
 73
    10
 74
     0
 42
0.0000000001
 43
0.0000000001
 40
220.8297463461137
 40
220.8297463461137
 40
220.8297463461137
 40
220.8297463461137
 40
221.4320903640258
 40
221.4320903640258
 40
221.4320903640258
 40
223.231514761679
 40
223.231514761679
 40
223.231514761679
 40
224.5810830599189
 40
224.5810830599189
 40
224.5810830599189
 40
224.5810830599189
 10
1481.999295560174
 20
2861.711541522478
 30
0.0
 41
1.089060785470128
 10
1481.999295560174
 20
2861.510760183174
 30
0.0
 41
1.089060785470128
 10
1481.999295560174
 20
2861.30997884387
 30
0.0
 41
1.089060785470128
 10
1481.999295560174
 20
2861.109197504566
 30
0.0
 41
1.089060785470128
 10
1481.999295560174
 20
2860.488229353537
 30
0.0
 41
1.01682678494274
 10
1481.729276281357
 20
2859.929041519568
 30
0.0
 41
1.01682678494274
 10
1481.242966330028
 20
2859.542901550346
 30
0.0
 41
1.089060785470128
 10
1480.884598360583
 20
2859.258350110849
 30
0.0
 41
1.034885285074587
 10
1480.449790554812
 20
2859.106189321482
 30
0.0
 41
1.021341409975701
 10
1479.986133127322
 20
2859.109240817445
 30
0.0
 41
1.048429160173472
  0
SPLINE
  5
17A
330
1F
100
AcDbEntity
  8
Linee visibili 2D
100
AcDbSpline
210
0.0
220
0.0
230
1.0
 70
    12
 71
     3
 72
    11
 73
     7
 74
     0
 42
0.0000000001
 43
0.0000000001
 40
205.7893026031153
 40
205.7893026031153
 40
205.7893026031153
 40
205.7893026031153
 40
207.2893026031154
 40
207.2893026031154
 40
207.2893026031154
 40
214.9287047727034
 40
214.9287047727034
 40
214.9287047727034
 40
214.9287047727034
 10
1498.999434556906
 20
2874.066439736405
 30
0.0
 41
1.089060785470128
 10
1498.999434556906
 20
2873.566439736405
 30
0.0
 41
1.089060785470128
 10
1498.999434556906
 20
2873.066439736405
 30
0.0
 41
1.089060785470128
 10
1498.999434556906
 20
2872.566439736405
 30
0.0
 41
1.089060785470128
 10
1495.299735415799
 20
2868.948140331763
 30
0.0
 41
1.089060785470128
 10
1491.600036274691
 20
2865.32984092712
 30
0.0
 41
1.089060785470128
 10
1487.900337133584
 20
2861.711541522478
 30
0.0
 41
1.089060785470128
  0
SPLINE
  5
17B
330
1F
100
AcDbEntity
  8
Linee visibili 2D
100
AcDbSpline
210
0.0
220
0.0
230
1.0
 70
    24
 71
     2
 72
     6
 73
     3
 74
     0
 42
0.0000000001
 43
0.0000000001
 40
0.0
 40
0.0
 40
0.0
 40
5.499999999999915
 40
5.499999999999915
 40
5.499999999999915
 10
1490.732032185091
 20
2879.566439736405
 30
0.0
 10
1490.732032185091
 20
2876.816439736405
 30
0.0
 10
1490.732032185091
 20
2874.066439736405
 30
0.0
  0
SPLINE
  5
17C
330
1F
100
AcDbEntity
  8
Linee visibili 2D
100
AcDbSpline
210
0.0
220
0.0
230
1.0
 70
    24
 71
     2
 72
     6
 73
     3
 74
     0
 42
0.0000000001
 43
0.0000000001
 40
0.0
 40
0.0
 40
0.0
 40
1.433560263595012
 40
1.433560263595012
 40
1.433560263595012
 10
1495.999434556906
 20
2881.0
 30
0.0
 10
1495.999434556906
 20
2880.283219868203
 30
0.0
 10
1495.999434556906
 20
2879.566439736405
 30
0.0
  0
SPLINE
  5
17D
330
1F
100
AcDbEntity
  8
Linee visibili 2D
100
AcDbSpline
210
0.0
220
0.0
230
1.0
 70
    12
 71
     3
 72
    20
 73
    16
 74
     0
 42
0.0000000001
 43
0.0000000001
 40
52.89856552995769
 40
52.89856552995769
 40
52.89856552995769
 40
52.89856552995769
 40
53.18756874895734
 40
53.18756874895734
 40
53.18756874895734
 40
96.41863154012158
 40
96.41863154012158
 40
96.41863154012158
 40
175.9777742184229
 40
175.9777742184229
 40
175.9777742184229
 40
179.8997083765422
 40
179.8997083765422
 40
179.8997083765422
 40
183.3209375958904
 40
183.3209375958904
 40
183.3209375958904
 40
183.3209375958904
 10
1374.950969325774
 20
2910.152207800402
 30
0.0
 41
1.000000000000006
 10
1375.049551037416
 20
2910.154414993124
 30
0.0
 41
1.000000000000006
 10
1375.149679317048
 20
2910.14935880069
 30
0.0
 41
1.000000000000006
 10
1375.250797415848
 20
2910.136548556601
 30
0.0
 41
1.000000000000006
 10
1389.54474073496
 20
2908.326050823634
 30
0.0
 41
0.9998460739994613
 10
1403.796480162698
 20
2906.20882600445
 30
0.0
 41
0.9998460739994613
 10
1417.999434559307
 20
2903.785851786895
 30
0.0
 41
1.000000000000006
 10
1444.11355444011
 20
2899.330369834265
 30
0.0
 41
1.000000000000006
 10
1470.025875346611
 20
2893.844853166096
 30
0.0
 41
1.000000000000006
 10
1495.736397276411
 20
2887.329301768316
 30
0.0
 41
1.000000000000006
 10
1497.14454696928
 20
2886.97244896989
 30
0.0
 41
0.8823917566280364
 10
1497.999434556906
 20
2885.826609897371
 30
0.0
 41
0.912078685118077
 10
1497.999434556906
 20
2884.421229219348
 30
0.0
 41
1.089060785470128
 10
1497.999434556906
 20
2883.280819479565
 30
0.0
 41
1.089060785470128
 10
1497.999434556906
 20
2882.140409739783
 30
0.0
 41
1.089060785470128
 10
1497.999434556906
 20
2881.0
 30
0.0
 41
1.089060785470128
  0
SPLINE
  5
17E
330
1F
100
AcDbEntity
  8
Linee visibili 2D
100
AcDbSpline
210
0.0
220
0.0
230
1.0
 70
     8
 71
     3
 72
    18
 73
    14
 74
     0
 42
0.0000000001
 43
0.0000000001
 40
0.0
 40
0.0
 40
0.0
 40
0.0
 40
14.96610719921506
 40
30.32616707530383
 40
45.81083041300126
 40
77.88160049778048
 40
92.30486586846087
 40
124.3044276349374
 40
163.0143699074278
 40
241.6269192397409
 40
274.3173940012286
 40
317.4058109182639
 40
375.1343022074158
 40
375.1343022074158
 40
375.1343022074158
 40
375.1343022074158
 10
1396.188169606296
 20
2907.260737122884
 30
0.0
 10
1396.601795888712
 20
2912.230868800106
 30
0.0
 10
1396.895621621428
 20
2922.356327293292
 30
0.0
 10
1395.493904607339
 20
2937.584033161411
 30
0.0
 10
1391.665274345792
 20
2958.2181745683
 30
0.0
 10
1386.567747936686
 20
2978.240826164667
 30
0.0
 10
1381.322583509115
 20
3003.890318559949
 30
0.0
 10
1378.400127732079
 20
3032.16815523015
 30
0.0
 10
1378.907005379718
 20
3082.000733496942
 30
0.0
 10
1384.196886777835
 20
3131.766314125704
 30
0.0
 10
1385.856679537551
 20
3183.230925721593
 30
0.0
 10
1383.425249063964
 20
3227.713362607039
 30
0.0
 10
1379.594423634227
 20
3261.091715907575
 30
0.0
 10
1377.255808806135
 20
3280.198693761665
 30
0.0
  0
SPLINE
  5
17F
330
1F
100
AcDbEntity
  8
Linee visibili 2D
100
AcDbSpline
210
0.0
220
0.0
230
1.0
 70
    12
 71
     2
 72
     6
 73
     3
 74
     0
 42
0.0000000001
 43
0.0000000001
 40
0.0
 40
0.0
 40
0.0
 40
179.8569313804192
 40
179.8569313804192
 40
179.8569313804192
 10
1327.992333002308
 20
2534.000000078512
 30
0.0
 41
1.0
 10
1235.637643659532
 20
2534.002052810416
 30
0.0
 41
0.9610557855236074
 10
1157.390628194637
 20
2583.061131671018
 30
0.0
 41
1.0
  0
SPLINE
  5
180
330
1F
100
AcDbEntity
  8
Linee visibili 2D
100
AcDbSpline
210
0.0
220
0.0
230
1.0
 70
    12
 71
     2
 72
     6
 73
     3
 74
     0
 42
0.0000000001
 43
0.0000000001
 40
0.0
 40
0.0
 40
0.0
 40
173.7978328774985
 40
173.7978328774985
 40
173.7978328774985
 10
1157.334819655337
 20
2583.096130344858
 30
0.0
 41
1.0
 10
1079.924865352234
 20
2631.652509247648
 30
0.0
 41
0.928063503671167
 10
1057.553347224275
 20
2720.250128482084
 30
0.0
 41
1.0
  0
SPLINE
  5
181
330
1F
100
AcDbEntity
  8
Linee visibili 2D
100
AcDbSpline
210
0.0
220
0.0
230
1.0
 70
    12
 71
     2
 72
     6
 73
     3
 74
     0
 42
0.0000000001
 43
0.0000000001
 40
0.0
 40
0.0
 40
0.0
 40
173.7978215069533
 40
173.7978215069533
 40
173.7978215069533
 10
1598.445521889537
 20
2720.250128482084
 30
0.0
 41
1.0
 10
1576.073963210869
 20
2631.652538748862
 30
0.0
 41
0.9280636933463388
 10
1498.664049458475
 20
2583.096130344858
 30
0.0
 41
1.0
  0
SPLINE
  5
182
330
1F
100
AcDbEntity
  8
Linee visibili 2D
100
AcDbSpline
210
0.0
220
0.0
230
1.0
 70
    12
 71
     2
 72
     6
 73
     3
 74
     0
 42
0.0000000001
 43
0.0000000001
 40
0.0
 40
0.0
 40
0.0
 40
73.04157955981958
 40
73.04157955981958
 40
73.04157955981958
 10
1057.553347224275
 20
2720.250128482084
 30
0.0
 41
1.0
 10
1048.430441718978
 20
2756.379875245028
 30
0.0
 41
0.9703603048527017
 10
1057.31795362323
 20
2792.568245451006
 30
0.0
 41
1.0
  0
SPLINE
  5
183
330
1F
100
AcDbEntity
  8
Linee visibili 2D
100
AcDbSpline
210
0.0
220
0.0
230
1.0
 70
    12
 71
     2
 72
     6
 73
     3
 74
     0
 42
0.0000000001
 43
0.0000000001
 40
0.0
 40
0.0
 40
0.0
 40
73.04159114762406
 40
73.04159114762406
 40
73.04159114762406
 10
1598.680915490582
 20
2792.568245451006
 30
0.0
 41
1.0
 10
1607.568501977873
 20
2756.379875002263
 30
0.0
 41
0.9703598354990752
 10
1598.445521889537
 20
2720.250128482084
 30
0.0
 41
1.0
  0
SPLINE
  5
184
330
1F
100
AcDbEntity
  8
Linee visibili 2D
100
AcDbSpline
210
0.0
220
0.0
230
1.0
 70
    12
 71
     2
 72
     6
 73
     3
 74
     0
 42
0.0000000001
 43
0.0000000001
 40
0.0
 40
0.0
 40
0.0
 40
133.874903975734
 40
133.874903975734
 40
133.874903975734
 10
1057.317953623229
 20
2792.568245451006
 30
0.0
 41
1.0
 10
1074.995410313865
 20
2864.545727989831
 30
0.0
 41
0.8608443817461308
 10
1146.578216675418
 20
2883.75906453194
 30
0.0
 41
1.0
  0
SPLINE
  5
185
330
1F
100
AcDbEntity
  8
Linee visibili 2D
100
AcDbSpline
210
0.0
220
0.0
230
1.0
 70
    12
 71
     2
 72
     6
 73
     3
 74
     0
 42
0.0000000001
 43
0.0000000001
 40
0.0
 40
0.0
 40
0.0
 40
133.8749821677393
 40
133.8749821677393
 40
133.8749821677393
 10
1509.420652438394
 20
2883.75906453194
 30
0.0
 41
1.0
 10
1581.003656870308
 20
2864.545921866941
 30
0.0
 41
0.8608427435970357
 10
1598.680915490583
 20
2792.568245451006
 30
0.0
 41
1.0
  0
SPLINE
  5
186
330
1F
100
AcDbEntity
  8
Linee visibili 2D
100
AcDbSpline
210
0.0
220
0.0
230
1.0
 70
    24
 71
     2
 72
     6
 73
     3
 74
     0
 42
0.0000000001
 43
0.0000000001
 40
0.0
 40
0.0
 40
0.0
 40
178.9581966549889
 40
178.9581966549889
 40
178.9581966549889
 10
1149.041237901917
 20
2884.083858410761
 30
0.0
 10
1238.520336229412
 20
2884.083858410761
 30
0.0
 10
1327.999434556906
 20
2884.083858410761
 30
0.0
  0
SPLINE
  5
187
330
1F
100
AcDbEntity
  8
Linee visibili 2D
100
AcDbSpline
210
0.0
220
0.0
230
1.0
 70
    24
 71
     3
 72
     8
 73
     4
 74
     0
 42
0.0000000001
 43
0.0000000001
 40
0.0
 40
0.0
 40
0.0
 40
0.0
 40
178.9581966515561
 40
178.9581966515561
 40
178.9581966515561
 40
178.9581966515561
 10
1327.999434556906
 20
2884.083858410761
 30
0.0
 10
1387.652166774092
 20
2884.083858410761
 30
0.0
 10
1447.304898991277
 20
2884.083858410761
 30
0.0
 10
1506.957631208462
 20
2884.083858410761
 30
0.0
  0
SPLINE
  5
188
330
1F
100
AcDbEntity
  8
Linee visibili 2D
100
AcDbSpline
210
0.0
220
0.0
230
1.0
 70
    12
 71
     2
 72
     6
 73
     3
 74
     0
 42
0.0000000001
 43
0.0000000001
 40
0.0
 40
0.0
 40
0.0
 40
2.316437199738681
 40
2.316437199738681
 40
2.316437199738681
 10
1146.747681394315
 20
2883.80288573163
 30
0.0
 41
1.0
 10
1147.877246239926
 20
2884.083883684262
 30
0.0
 41
0.9925770104346944
 10
1149.041237901917
 20
2884.083858410761
 30
0.0
 41
1.0
  0
SPLINE
  5
189
330
1F
100
AcDbEntity
  8
Linee visibili 2D
100
AcDbSpline
210
0.0
220
0.0
230
1.0
 70
    12
 71
     2
 72
     6
 73
     3
 74
     0
 42
0.0000000001
 43
0.0000000001
 40
0.0
 40
0.0
 40
0.0
 40
0.0256454720021849
 40
0.0256454720021849
 40
0.0256454720021849
 10
1146.619983841779
 20
2883.770173616178
 30
0.0
 41
1.0
 10
1146.632383187212
 20
2883.773441488525
 30
0.0
 41
0.9999990955436874
 10
1146.64479127808
 20
2883.776675995884
 30
0.0
 41
1.0
  0
SPLINE
  5
18A
330
1F
100
AcDbEntity
  8
Linee visibili 2D
100
AcDbSpline
210
0.0
220
0.0
230
1.0
 70
    12
 71
     2
 72
     6
 73
     3
 74
     0
 42
0.0000000001
 43
0.0000000001
 40
0.0
 40
0.0
 40
0.0
 40
2.316436831171665
 40
2.316436831171665
 40
2.316436831171665
 10
1506.957631208461
 20
2884.083858410761
 30
0.0
 41
1.0
 10
1508.121622361918
 20
2884.083879708659
 30
0.0
 41
0.992577423292894
 10
1509.251187662052
 20
2883.802885690019
 30
0.0
 41
1.0
  0
SPLINE
  5
18B
330
1F
100
AcDbEntity
  8
Linee visibili 2D
100
AcDbSpline
210
0.0
220
0.0
230
1.0
 70
    24
 71
     2
 72
     6
 73
     3
 74
     0
 42
0.0000000001
 43
0.0000000001
 40
0.0
 40
0.0
 40
0.0
 40
663.711541522478
 40
663.711541522478
 40
663.711541522478
 10
1283.099434556906
 20
2904.0
 30
0.0
 10
1283.099434556906
 20
3235.855770761239
 30
0.0
 10
1283.099434556906
 20
3567.711541522478
 30
0.0
  0
SPLINE
  5
18C
330
1F
100
AcDbEntity
  8
Linee visibili 2D
100
AcDbSpline
210
0.0
220
0.0
230
1.0
 70
    24
 71
     2
 72
     6
 73
     3
 74
     0
 42
0.0000000001
 43
0.0000000001
 40
0.0
 40
0.0
 40
0.0
 40
91.05164647516563
 40
91.05164647516563
 40
91.05164647516563
 10
1283.899434556949
 20
2910.15270913265
 30
0.0
 10
1329.425257794532
 20
2910.15270913265
 30
0.0
 10
1374.951081032114
 20
2910.15270913265
 30
0.0
  0
SPLINE
  5
18D
330
1F
100
AcDbEntity
  8
Linee visibili 2D
100
AcDbSpline
210
0.0
220
0.0
230
1.0
 70
    24
 71
     2
 72
     6
 73
     3
 74
     0
 42
0.0000000001
 43
0.0000000001
 40
0.0
 40
0.0
 40
0.0
 40
2.096346017271713
 40
2.096346017271713
 40
2.096346017271713
 10
1281.00308853975
 20
2910.15270913265
 30
0.0
 10
1282.051261548386
 20
2910.15270913265
 30
0.0
 10
1283.099434557022
 20
2910.15270913265
 30
0.0
  0
SPLINE
  5
18E
330
1F
100
AcDbEntity
  8
Linee visibili 2D
100
AcDbSpline
210
0.0
220
0.0
230
1.0
 70
     8
 71
     3
 72
    17
 73
    13
 74
     0
 42
0.0000000001
 43
0.0000000001
 40
0.0
 40
0.0
 40
0.0
 40
0.0
 40
0.350398222858367
 40
2.110744548117277
 40
2.706374817697531
 40
3.215565253295458
 40
3.708347301791352
 40
4.178821535789799
 40
5.015314657887562
 40
13.36268460927147
 40
43.91392497712235
 40
127.2622036720161
 40
127.2622036720161
 40
127.2622036720161
 40
127.2622036720161
 10
1157.999434556909
 20
2884.083858410761
 30
0.0
 10
1158.003919044757
 20
2884.200192719731
 30
0.0
 10
1157.967901350671
 20
2884.906048218323
 30
0.0
 10
1158.241493025878
 20
2885.80204476598
 30
0.0
 10
1158.855384020404
 20
2886.545316617608
 30
0.0
 10
1159.2660165895
 20
2886.881573020659
 30
0.0
 10
1159.687657272746
 20
2887.143784627115
 30
0.0
 10
1160.257242905298
 20
2887.332777978654
 30
0.0
 10
1163.379000663337
 20
2888.113984430676
 30
0.0
 10
1176.232485946144
 20
2891.314142905852
 30
0.0
 10
1215.969937965585
 20
2900.350037079478
 30
0.0
 10
1253.436622135769
 20
2906.701132346739
 30
0.0
 10
1281.00308853975
 20
2910.15270913265
 30
0.0
  0
SPLINE
  5
18F
330
1F
100
AcDbEntity
  8
Linee visibili 2D
100
AcDbSpline
210
0.0
220
0.0
230
1.0
 70
    24
 71
     2
 72
     6
 73
     3
 74
     0
 42
0.0000000001
 43
0.0000000001
 40
0.0
 40
0.0
 40
0.0
 40
33.0
 40
33.0
 40
33.0
 10
1227.999434556908
 20
3577.711541522478
 30
0.0
 10
1227.999434556908
 20
3594.211541522478
 30
0.0
 10
1227.999434556908
 20
3610.711541522478
 30
0.0
  0
SPLINE
  5
190
330
1F
100
AcDbEntity
  8
Linee visibili 2D
100
AcDbSpline
210
0.0
220
0.0
230
1.0
 70
    24
 71
     2
 72
     6
 73
     3
 74
     0
 42
0.0000000001
 43
0.0000000001
 40
0.0
 40
0.0
 40
0.0
 40
10.0
 40
10.0
 40
10.0
 10
1202.999434556908
 20
3567.711541522478
 30
0.0
 10
1202.999434556908
 20
3572.711541522478
 30
0.0
 10
1202.999434556908
 20
3577.711541522478
 30
0.0
  0
SPLINE
  5
191
330
1F
100
AcDbEntity
  8
Linee visibili 2D
100
AcDbSpline
210
0.0
220
0.0
230
1.0
 70
    24
 71
     2
 72
     6
 73
     3
 74
     0
 42
0.0000000001
 43
0.0000000001
 40
0.0
 40
0.0
 40
0.0
 40
1.887284288007754
 40
1.887284288007754
 40
1.887284288007754
 10
1396.01643482753
 20
3567.711541522478
 30
0.0
 10
1396.932684478125
 20
3567.485826937824
 30
0.0
 10
1397.848934128719
 20
3567.260112353169
 30
0.0
  0
SPLINE
  5
192
330
1F
100
AcDbEntity
  8
Linee visibili 2D
100
AcDbSpline
210
0.0
220
0.0
230
1.0
 70
    12
 71
     2
 72
     6
 73
     3
 74
     0
 42
0.0000000001
 43
0.0000000001
 40
0.0
 40
0.0
 40
0.0
 40
179.863314351706
 40
179.863314351706
 40
179.863314351706
 10
1327.999434556906
 20
2534.0
 30
0.0
 41
1.0
 10
1420.357581323985
 20
2534.0
 30
0.0
 41
0.9610530082800368
 10
1498.607630446471
 20
2583.060748940246
 30
0.0
 41
1.0
  0
SPLINE
  5
193
330
1F
100
AcDbEntity
  8
Linee visibili 2D - Tangent
100
AcDbSpline
210
0.0
220
0.0
230
1.0
 70
    12
 71
     2
 72
     8
 73
     5
 74
     0
 42
0.0000000001
 43
0.0000000001
 40
0.0
 40
0.0
 40
0.0
 40
0.0446949868310043
 40
0.0446949868310043
 40
285.020477637729
 40
285.020477637729
 40
285.020477637729
 10
1146.622911662249
 20
2883.759064674377
 30
0.0
 41
1.0
 10
1146.600564168833
 20
2883.759064674377
 30
0.0
 41
1.0
 10
1146.578216675418
 20
2883.759064674377
 30
0.0
 41
1.0
 10
1146.578216675418
 20
2883.75906453194
 30
0.0
 41
0.7071067811865476
 10
1327.999434556906
 20
2883.759064531941
 30
0.0
 41
1.0
  0
SPLINE
  5
194
330
1F
100
AcDbEntity
  8
Linee visibili 2D - Tangent
100
AcDbSpline
210
0.0
220
0.0
230
1.0
 70
    24
 71
     2
 72
     6
 73
     3
 74
     0
 42
0.0000000001
 43
0.0000000001
 40
0.0
 40
0.0
 40
0.0
 40
181.3765228946571
 40
181.3765228946571
 40
181.3765228946571
 10
1327.999434556906
 20
2883.759064531941
 30
0.0
 10
1418.687696004235
 20
2883.759064531941
 30
0.0
 10
1509.375957451563
 20
2883.759064531941
 30
0.0
  0
SPLINE
  5
195
330
1F
100
AcDbEntity
  8
Linee visibili 2D
100
AcDbSpline
210
0.0
220
0.0
230
1.0
 70
    24
 71
     2
 72
     6
 73
     3
 74
     0
 42
0.0000000001
 43
0.0000000001
 40
0.0
 40
0.0
 40
0.0
 40
663.711541522478
 40
663.711541522478
 40
663.711541522478
 10
1283.899434556906
 20
2904.0
 30
0.0
 10
1283.899434556906
 20
3235.855770761239
 30
0.0
 10
1283.899434556906
 20
3567.711541522478
 30
0.0
  0
SPLINE
  5
196
330
1F
100
AcDbEntity
  8
Linee visibili 2D
100
AcDbSpline
210
0.0
220
0.0
230
1.0
 70
    24
 71
     2
 72
     6
 73
     3
 74
     0
 42
0.0000000001
 43
0.0000000001
 40
0.0
 40
0.0
 40
0.0
 40
249.9692049616957
 40
249.9692049616957
 40
249.9692049616957
 10
1452.999434556908
 20
3577.711541522478
 30
0.0
 10
1328.01483207606
 20
3577.711541522478
 30
0.0
 10
1203.030229595212
 20
3577.711541522478
 30
0.0
  0
SPLINE
  5
197
330
1F
100
AcDbEntity
  8
Linee visibili 2D
100
AcDbSpline
210
0.0
220
0.0
230
1.0
 70
    24
 71
     2
 72
     6
 73
     3
 74
     0
 42
0.0000000001
 43
0.0000000001
 40
0.0
 40
0.0
 40
0.0
 40
249.9692049616957
 40
249.9692049616957
 40
249.9692049616957
 10
1452.999434556908
 20
3567.711541522478
 30
0.0
 10
1328.01483207606
 20
3567.711541522478
 30
0.0
 10
1203.030229595212
 20
3567.711541522478
 30
0.0
  0
SPLINE
  5
198
330
1F
100
AcDbEntity
  8
Linee visibili 2D
100
AcDbSpline
210
0.0
220
0.0
230
1.0
 70
    24
 71
     2
 72
     6
 73
     3
 74
     0
 42
0.0000000001
 43
0.0000000001
 40
0.0
 40
0.0
 40
0.0
 40
200.0
 40
200.0
 40
200.0
 10
1427.999434556908
 20
3610.711541522478
 30
0.0
 10
1327.999434556908
 20
3610.711541522478
 30
0.0
 10
1227.999434556908
 20
3610.711541522478
 30
0.0
  0
SPLINE
  5
199
330
1F
100
AcDbEntity
  8
Linee visibili 2D
100
AcDbSpline
210
0.0
220
0.0
230
1.0
 70
    24
 71
     2
 72
     6
 73
     3
 74
     0
 42
0.0000000001
 43
0.0000000001
 40
0.0
 40
0.0
 40
0.0
 40
663.8235186808766
 40
663.8235186808766
 40
663.8235186808766
 10
1417.399434556906
 20
2903.888022841601
 30
0.0
 10
1417.399434556906
 20
3235.79978218204
 30
0.0
 10
1417.399434556906
 20
3567.711541522478
 30
0.0
  0
SPLINE
  5
19A
330
1F
100
AcDbEntity
  8
Linee visibili 2D
100
AcDbSpline
210
0.0
220
0.0
230
1.0
 70
    24
 71
     2
 72
     6
 73
     3
 74
     0
 42
0.0000000001
 43
0.0000000001
 40
0.0
 40
0.0
 40
0.0
 40
663.6878717548934
 40
663.6878717548934
 40
663.6878717548934
 10
1416.599434556906
 20
3567.711541522478
 30
0.0
 10
1416.599434556906
 20
3235.867605645031
 30
0.0
 10
1416.599434556906
 20
2904.023669767585
 30
0.0
  0
SPLINE
  5
19B
330
1F
100
AcDbEntity
  8
Linee visibili 2D
100
AcDbSpline
210
0.0
220
0.0
230
1.0
 70
    12
 71
     3
 72
    21
 73
    17
 74
     0
 42
0.0000000001
 43
0.0000000001
 40
-666.3892615566091
 40
-666.3892615566091
 40
-666.3892615566091
 40
-666.3892615566091
 40
-664.9228721851384
 40
-643.4225505385147
 40
-616.7203633869651
 40
-590.0462194740987
 40
-568.605391267445
 40
-514.9372395421227
 40
-429.0783063412139
 40
-402.2425408332776
 40
-364.7178934508918
 40
-300.5399211561656
 40
-214.9501963461183
 40
-171.9685510779566
 40
-107.3213024438071
 40
0.0
 40
0.0
 40
0.0
 40
0.0
 10
1401.145687967069
 20
2906.514019085973
 30
0.0
 41
1.016611713785806
 10
1401.188007617033
 20
2907.006541095316
 30
0.0
 41
1.016611713785806
 10
1401.810748412943
 20
2914.719229257038
 30
0.0
 41
1.016611713785807
 10
1401.727503785535
 20
2931.375465560089
 30
0.0
 41
1.0166117137858
 10
1397.241686296645
 20
2956.296516324549
 30
0.0
 41
1.01661171378581
 10
1391.074166751625
 20
2980.927515730688
 30
0.0
 41
1.0166117137858
 10
1384.409903541926
 20
3013.902408800472
 30
0.0
 41
1.01661171378581
 10
1382.406782115779
 20
3066.675967256784
 30
0.0
 41
1.0166117137858
 10
1388.377219876667
 20
3122.217804696729
 30
0.0
 41
1.01661171378581
 10
1390.719162123714
 20
3172.572134260074
 30
0.0
 41
1.0166117137858
 10
1389.598721805242
 20
3215.67466439618
 30
0.0
 41
1.01661171378581
 10
1382.828273076833
 20
3278.230519932333
 30
0.0
 41
1.0166117137858
 10
1374.371745780659
 20
3342.209816985644
 30
0.0
 41
1.0166117137858
 10
1371.742851458272
 20
3405.550947674426
 30
0.0
 41
1.0166117137858
 10
1377.155068284341
 20
3475.665683290972
 30
0.0
 41
1.0166117137858
 10
1389.135526568231
 20
3531.923041996281
 30
0.0
 41
1.0166117137858
 10
1397.848934128719
 20
3567.260112353169
 30
0.0
 41
1.0166117137858
  0
SPLINE
  5
19C
330
1F
100
AcDbEntity
  8
Linee visibili 2D
100
AcDbSpline
210
0.0
220
0.0
230
1.0
 70
    12
 71
     3
 72
    11
 73
     7
 74
     0
 42
0.0000000001
 43
0.0000000001
 40
0.7522012057000286
 40
0.7522012057000286
 40
0.7522012057000286
 40
0.7522012057000286
 40
107.4279013443891
 40
172.1393620731846
 40
215.1636996682792
 40
291.0476387743132
 40
291.0476387743132
 40
291.0476387743132
 40
291.0476387743132
 10
1392.810718728689
 20
3567.711541522478
 30
0.0
 41
1.0166117137858
 10
1384.151419689746
 20
3532.516031290975
 30
0.0
 41
1.0166117137858
 10
1372.185810377751
 20
3476.241005891578
 30
0.0
 41
1.0166117137858
 10
1366.731332966695
 20
3405.659209870423
 30
0.0
 41
1.0166117137858
 10
1369.258162212551
 20
3344.903021000421
 30
0.0
 41
1.0166117137858
 10
1374.213874214189
 20
3305.412488936737
 30
0.0
 41
1.0166117137858
 10
1377.256421377314
 20
3280.198767433738
 30
0.0
 41
1.016611713785802
  0
SPLINE
  5
19D
330
1F
100
AcDbEntity
  8
Linee visibili 2D
100
AcDbSpline
210
0.0
220
0.0
230
1.0
 70
    12
 71
     3
 72
    17
 73
    13
 74
     0
 42
0.0000000001
 43
0.0000000001
 40
95.80980961976242
 40
95.80980961976242
 40
95.80980961976242
 40
95.80980961976242
 40
96.41863154012158
 40
96.41863154012158
 40
96.41863154012158
 40
175.9777742184229
 40
175.9777742184229
 40
175.9777742184229
 40
179.8997083765422
 40
179.8997083765422
 40
179.8997083765422
 40
180.2370791851295
 40
180.2370791851295
 40
180.2370791851295
 40
180.2370791851295
 10
1417.399434555196
 20
2903.888022841458
 30
0.0
 41
0.9999935883770523
 10
1417.599445073336
 20
2903.854026310026
 30
0.0
 41
0.9999956950565368
 10
1417.79944508079
 20
2903.819969290669
 30
0.0
 41
0.9999978322641879
 10
1417.999434559307
 20
2903.785851786895
 30
0.0
 41
1.000000000000006
 10
1444.11355444011
 20
2899.330369834265
 30
0.0
 41
1.000000000000006
 10
1470.025875346611
 20
2893.844853166096
 30
0.0
 41
1.000000000000006
 10
1495.736397276411
 20
2887.329301768316
 30
0.0
 41
1.000000000000006
 10
1497.14454696928
 20
2886.97244896989
 30
0.0
 41
0.8823917566280364
 10
1497.999434556906
 20
2885.826609897371
 30
0.0
 41
0.912078685118077
 10
1497.999434556906
 20
2884.421229219348
 30
0.0
 41
1.089060785470128
 10
1497.999434556906
 20
2884.308772283152
 30
0.0
 41
1.089060785470128
 10
1497.999434556906
 20
2884.196315346956
 30
0.0
 41
1.089060785470128
 10
1497.999434556906
 20
2884.083858410761
 30
0.0
 41
1.089060785470128
  0
SPLINE
  5
19E
330
1F
100
AcDbEntity
  8
Linee visibili 2D
100
AcDbSpline
210
0.0
220
0.0
230
1.0
 70
    12
 71
     3
 72
     8
 73
     4
 74
     0
 42
0.0000000001
 43
0.0000000001
 40
79.34120315180971
 40
79.34120315180971
 40
79.34120315180971
 40
79.34120315180971
 40
94.99815039776857
 40
94.99815039776857
 40
94.99815039776857
 40
94.99815039776857
 10
1401.145687967069
 20
2906.514019085973
 30
0.0
 41
0.9998896440035254
 10
1406.303427750176
 20
2905.723989823263
 30
0.0
 41
0.9999013479302448
 10
1411.454780413981
 20
2904.893855343867
 30
0.0
 41
0.9999332417648309
 10
1416.599434549039
 20
2904.023669766926
 30
0.0
 41
0.9999853255072838
  0
SPLINE
  5
19F
330
1F
100
AcDbEntity
  8
Linee visibili 2D
100
AcDbSpline
210
0.0
220
0.0
230
1.0
 70
    12
 71
     3
 72
    11
 73
     7
 74
     0
 42
0.0000000001
 43
0.0000000001
 40
52.89856552995762
 40
52.89856552995762
 40
52.89856552995762
 40
52.89856552995762
 40
53.18756874895734
 40
53.18756874895734
 40
53.18756874895734
 40
74.32678989467236
 40
74.32678989467236
 40
74.32678989467236
 40
74.32678989467236
 10
1374.950969325773
 20
2910.152207800402
 30
0.0
 41
1.000000000000006
 10
1375.049551037416
 20
2910.154414993124
 30
0.0
 41
1.000000000000006
 10
1375.149679317048
 20
2910.14935880069
 30
0.0
 41
1.000000000000006
 10
1375.250797415847
 20
2910.136548556601
 30
0.0
 41
1.000000000000006
 10
1382.239731755373
 20
2909.251316994178
 30
0.0
 41
0.9999247329222264
 10
1389.219113086963
 20
2908.292680720644
 30
0.0
 41
0.9998862701073877
 10
1396.188169606296
 20
2907.260737122884
 30
0.0
 41
0.9998846115554897
  0
SPLINE
  5
1A0
330
1F
100
AcDbEntity
  8
Linee visibili 2D
100
AcDbSpline
210
0.0
220
0.0
230
1.0
 70
    24
 71
     2
 72
     6
 73
     3
 74
     0
 42
0.0000000001
 43
0.0000000001
 40
0.0
 40
0.0
 40
0.0
 40
33.0
 40
33.0
 40
33.0
 10
1427.999434556908
 20
3577.711541522478
 30
0.0
 10
1427.999434556908
 20
3594.211541522478
 30
0.0
 10
1427.999434556908
 20
3610.711541522478
 30
0.0
  0
SPLINE
  5
1A1
330
1F
100
AcDbEntity
  8
Linee visibili 2D
100
AcDbSpline
210
0.0
220
0.0
230
1.0
 70
    24
 71
     2
 72
     6
 73
     3
 74
     0
 42
0.0000000001
 43
0.0000000001
 40
0.0
 40
0.0
 40
0.0
 40
10.0
 40
10.0
 40
10.0
 10
1452.999434556908
 20
3567.711541522478
 30
0.0
 10
1452.999434556908
 20
3572.711541522478
 30
0.0
 10
1452.999434556908
 20
3577.711541522478
 30
0.0
  0
ENDSEC
  0
SECTION
  2
OBJECTS
  0
DICTIONARY
  5
C
330
0
100
AcDbDictionary
281
     1
  3
ACAD_GROUP
350
D
  3
ACAD_LAYOUT
350
1A
  3
ACAD_MLEADERSTYLE
350
1A5
  3
ACAD_MLINESTYLE
350
17
  3
ACAD_PLOTSETTINGS
350
19
  3
ACAD_PLOTSTYLENAME
350
E
  3
ACAD_SCALELIST
350
3D
  3
ACAD_TABLESTYLE
350
1A4
  3
ACAD_VISUALSTYLE
350
2A
  3
AcDbVariableDictionary
350
1A2
  0
DICTIONARY
  5
D
102
{ACAD_REACTORS
330
C
102
}
330
C
100
AcDbDictionary
281
     1
  0
DICTIONARY
  5
1A
102
{ACAD_REACTORS
330
C
102
}
330
C
100
AcDbDictionary
281
     1
  3
Layout1
350
1E
  3
Layout2
350
26
  3
Model
350
22
  0
DICTIONARY
  5
1A5
102
{ACAD_REACTORS
330
C
102
}
330
C
100
AcDbDictionary
281
     1
  0
DICTIONARY
  5
17
102
{ACAD_REACTORS
330
C
102
}
330
C
100
AcDbDictionary
281
     1
  3
Standard
350
18
  0
DICTIONARY
  5
19
102
{ACAD_REACTORS
330
C
102
}
330
C
100
AcDbDictionary
281
     1
  0
ACDBDICTIONARYWDFLT
  5
E
102
{ACAD_REACTORS
330
C
102
}
330
C
100
AcDbDictionary
281
     1
  3
Normal
350
F
100
AcDbDictionaryWithDefault
340
F
  0
DICTIONARY
  5
3D
102
{ACAD_REACTORS
330
C
102
}
330
C
100
AcDbDictionary
281
     1
  3
A0
350
3E
  3
A1
350
3F
  3
A2
350
40
  3
A3
350
41
  3
A4
350
42
  3
A5
350
43
  3
A6
350
44
  3
A7
350
45
  3
A8
350
46
  3
A9
350
47
  3
B0
350
48
  3
B1
350
49
  3
B2
350
4A
  3
B3
350
4B
  3
B4
350
4C
  3
B5
350
4D
  3
B6
350
4E
  3
B7
350
4F
  3
B8
350
50
  3
B9
350
51
  3
C0
350
52
  3
C1
350
53
  3
C2
350
54
  3
C3
350
55
  3
C4
350
56
  3
C5
350
57
  3
C6
350
58
  3
C7
350
59
  3
C8
350
5A
  3
C9
350
5B
  3
D0
350
5C
  3
D1
350
5D
  3
D2
350
5E
  0
DICTIONARY
  5
1A4
102
{ACAD_REACTORS
330
C
102
}
330
C
100
AcDbDictionary
281
     1
  0
DICTIONARY
  5
2A
102
{ACAD_REACTORS
330
C
102
}
330
C
100
AcDbDictionary
281
     1
  3
2dWireframe
350
2F
  3
3D Hidden
350
31
  3
3dWireframe
350
30
  3
Basic
350
32
  3
Brighten
350
36
  3
ColorChange
350
3A
  3
Conceptual
350
34
  3
Dim
350
35
  3
Facepattern
350
39
  3
Flat
350
2B
  3
FlatWithEdges
350
2C
  3
Gouraud
350
2D
  3
GouraudWithEdges
350
2E
  3
Linepattern
350
38
  3
Realistic
350
33
  3
Thicken
350
37
  0
DICTIONARY
  5
1A2
102
{ACAD_REACTORS
330
C
102
}
330
C
100
AcDbDictionary
281
     1
  3
CANNOSCALE
350
1A3
  0
LAYOUT
  5
1E
102
{ACAD_REACTORS
330
1A
102
}
330
1A
100
AcDbPlotSettings
  1

  2
none_device
  4

  6

 40
0.0
 41
0.0
 42
0.0
 43
0.0
 44
0.0
 45
0.0
 46
0.0
 47
0.0
 48
0.0
 49
0.0
140
0.0
141
0.0
142
1.0
143
1.0
 70
   688
 72
     0
 73
     0
 74
     5
  7

 75
    16
 76
     0
 77
     2
 78
   300
147
1.0
148
0.0
149
0.0
100
AcDbLayout
  1
Layout1
 70
     1
 71
     1
 10
0.0
 20
0.0
 11
12.0
 21
9.0
 12
0.0
 22
0.0
 32
0.0
 14
1.000000000000000E+20
 24
1.000000000000000E+20
 34
1.000000000000000E+20
 15
-1.000000000000000E+20
 25
-1.000000000000000E+20
 35
-1.000000000000000E+20
146
0.0
 13
0.0
 23
0.0
 33
0.0
 16
1.0
 26
0.0
 36
0.0
 17
0.0
 27
1.0
 37
0.0
 76
     0
330
1B
  0
LAYOUT
  5
26
102
{ACAD_REACTORS
330
1A
102
}
330
1A
100
AcDbPlotSettings
  1

  2
none_device
  4

  6

 40
0.0
 41
0.0
 42
0.0
 43
0.0
 44
0.0
 45
0.0
 46
0.0
 47
0.0
 48
0.0
 49
0.0
140
0.0
141
0.0
142
1.0
143
1.0
 70
   688
 72
     0
 73
     0
 74
     5
  7

 75
    16
 76
     0
 77
     2
 78
   300
147
1.0
148
0.0
149
0.0
100
AcDbLayout
  1
Layout2
 70
     1
 71
     2
 10
0.0
 20
0.0
 11
0.0
 21
0.0
 12
0.0
 22
0.0
 32
0.0
 14
0.0
 24
0.0
 34
0.0
 15
0.0
 25
0.0
 35
0.0
146
0.0
 13
0.0
 23
0.0
 33
0.0
 16
1.0
 26
0.0
 36
0.0
 17
0.0
 27
1.0
 37
0.0
 76
     0
330
23
  0
LAYOUT
  5
22
102
{ACAD_REACTORS
330
1A
102
}
330
1A
100
AcDbPlotSettings
  1

  2
none_device
  4

  6

 40
0.0
 41
0.0
 42
0.0
 43
0.0
 44
0.0
 45
0.0
 46
0.0
 47
0.0
 48
0.0
 49
0.0
140
0.0
141
0.0
142
1.0
143
1.0
 70
  1712
 72
     0
 73
     0
 74
     0
  7

 75
     0
 76
     0
 77
     2
 78
   300
147
1.0
148
0.0
149
0.0
100
AcDbLayout
  1
Model
 70
     1
 71
     0
 10
0.0
 20
0.0
 11
12.0
 21
9.0
 12
0.0
 22
0.0
 32
0.0
 14
856.8730885397503
 24
1789.99950372348
 34
0.0
 15
2376.998145658239
 25
3676.841541522478
 35
0.0
146
0.0
 13
0.0
 23
0.0
 33
0.0
 16
1.0
 26
0.0
 36
0.0
 17
0.0
 27
1.0
 37
0.0
 76
     0
330
1F
331
29
  0
MLINESTYLE
  5
18
102
{ACAD_REACTORS
330
17
102
}
330
17
100
AcDbMlineStyle
  2
Standard
 70
     0
  3

 62
   256
 51
90.0
 52
90.0
 71
     2
 49
0.5
 62
   256
  6
BYLAYER
 49
-0.5
 62
   256
  6
BYLAYER
  0
ACDBPLACEHOLDER
  5
F
102
{ACAD_REACTORS
330
E
102
}
330
E
  0
SCALE
  5
3E
102
{ACAD_REACTORS
330
3D
102
}
330
3D
100
AcDbScale
 70
     0
300
1:1
140
1.0
141
1.0
290
     1
  0
SCALE
  5
3F
102
{ACAD_REACTORS
330
3D
102
}
330
3D
100
AcDbScale
 70
     0
300
1:2
140
1.0
141
2.0
290
     0
  0
SCALE
  5
40
102
{ACAD_REACTORS
330
3D
102
}
330
3D
100
AcDbScale
 70
     0
300
1:4
140
1.0
141
4.0
290
     0
  0
SCALE
  5
41
102
{ACAD_REACTORS
330
3D
102
}
330
3D
100
AcDbScale
 70
     0
300
1:5
140
1.0
141
5.0
290
     0
  0
SCALE
  5
42
102
{ACAD_REACTORS
330
3D
102
}
330
3D
100
AcDbScale
 70
     0
300
1:8
140
1.0
141
8.0
290
     0
  0
SCALE
  5
43
102
{ACAD_REACTORS
330
3D
102
}
330
3D
100
AcDbScale
 70
     0
300
1:10
140
1.0
141
10.0
290
     0
  0
SCALE
  5
44
102
{ACAD_REACTORS
330
3D
102
}
330
3D
100
AcDbScale
 70
     0
300
1:16
140
1.0
141
16.0
290
     0
  0
SCALE
  5
45
102
{ACAD_REACTORS
330
3D
102
}
330
3D
100
AcDbScale
 70
     0
300
1:20
140
1.0
141
20.0
290
     0
  0
SCALE
  5
46
102
{ACAD_REACTORS
330
3D
102
}
330
3D
100
AcDbScale
 70
     0
300
1:30
140
1.0
141
30.0
290
     0
  0
SCALE
  5
47
102
{ACAD_REACTORS
330
3D
102
}
330
3D
100
AcDbScale
 70
     0
300
1:40
140
1.0
141
40.0
290
     0
  0
SCALE
  5
48
102
{ACAD_REACTORS
330
3D
102
}
330
3D
100
AcDbScale
 70
     0
300
1:50
140
1.0
141
50.0
290
     0
  0
SCALE
  5
49
102
{ACAD_REACTORS
330
3D
102
}
330
3D
100
AcDbScale
 70
     0
300
1:100
140
1.0
141
100.0
290
     0
  0
SCALE
  5
4A
102
{ACAD_REACTORS
330
3D
102
}
330
3D
100
AcDbScale
 70
     0
300
2:1
140
2.0
141
1.0
290
     0
  0
SCALE
  5
4B
102
{ACAD_REACTORS
330
3D
102
}
330
3D
100
AcDbScale
 70
     0
300
4:1
140
4.0
141
1.0
290
     0
  0
SCALE
  5
4C
102
{ACAD_REACTORS
330
3D
102
}
330
3D
100
AcDbScale
 70
     0
300
8:1
140
8.0
141
1.0
290
     0
  0
SCALE
  5
4D
102
{ACAD_REACTORS
330
3D
102
}
330
3D
100
AcDbScale
 70
     0
300
10:1
140
10.0
141
1.0
290
     0
  0
SCALE
  5
4E
102
{ACAD_REACTORS
330
3D
102
}
330
3D
100
AcDbScale
 70
     0
300
100:1
140
100.0
141
1.0
290
     0
  0
SCALE
  5
4F
102
{ACAD_REACTORS
330
3D
102
}
330
3D
100
AcDbScale
 70
     0
300
1/128" = 1'-0"
140
0.0078125
141
12.0
290
     0
  0
SCALE
  5
50
102
{ACAD_REACTORS
330
3D
102
}
330
3D
100
AcDbScale
 70
     0
300
1/64" = 1'-0"
140
0.015625
141
12.0
290
     0
  0
SCALE
  5
51
102
{ACAD_REACTORS
330
3D
102
}
330
3D
100
AcDbScale
 70
     0
300
1/32" = 1'-0"
140
0.03125
141
12.0
290
     0
  0
SCALE
  5
52
102
{ACAD_REACTORS
330
3D
102
}
330
3D
100
AcDbScale
 70
     0
300
1/16" = 1'-0"
140
0.0625
141
12.0
290
     0
  0
SCALE
  5
53
102
{ACAD_REACTORS
330
3D
102
}
330
3D
100
AcDbScale
 70
     0
300
3/32" = 1'-0"
140
0.09375
141
12.0
290
     0
  0
SCALE
  5
54
102
{ACAD_REACTORS
330
3D
102
}
330
3D
100
AcDbScale
 70
     0
300
1/8" = 1'-0"
140
0.125
141
12.0
290
     0
  0
SCALE
  5
55
102
{ACAD_REACTORS
330
3D
102
}
330
3D
100
AcDbScale
 70
     0
300
3/16" = 1'-0"
140
0.1875
141
12.0
290
     0
  0
SCALE
  5
56
102
{ACAD_REACTORS
330
3D
102
}
330
3D
100
AcDbScale
 70
     0
300
1/4" = 1'-0"
140
0.25
141
12.0
290
     0
  0
SCALE
  5
57
102
{ACAD_REACTORS
330
3D
102
}
330
3D
100
AcDbScale
 70
     0
300
3/8" = 1'-0"
140
0.375
141
12.0
290
     0
  0
SCALE
  5
58
102
{ACAD_REACTORS
330
3D
102
}
330
3D
100
AcDbScale
 70
     0
300
1/2" = 1'-0"
140
0.5
141
12.0
290
     0
  0
SCALE
  5
59
102
{ACAD_REACTORS
330
3D
102
}
330
3D
100
AcDbScale
 70
     0
300
3/4" = 1'-0"
140
0.75
141
12.0
290
     0
  0
SCALE
  5
5A
102
{ACAD_REACTORS
330
3D
102
}
330
3D
100
AcDbScale
 70
     0
300
1" = 1'-0"
140
1.0
141
12.0
290
     0
  0
SCALE
  5
5B
102
{ACAD_REACTORS
330
3D
102
}
330
3D
100
AcDbScale
 70
     0
300
1-1/2" = 1'-0"
140
1.5
141
12.0
290
     0
  0
SCALE
  5
5C
102
{ACAD_REACTORS
330
3D
102
}
330
3D
100
AcDbScale
 70
     0
300
3" = 1'-0"
140
3.0
141
12.0
290
     0
  0
SCALE
  5
5D
102
{ACAD_REACTORS
330
3D
102
}
330
3D
100
AcDbScale
 70
     0
300
6" = 1'-0"
140
6.0
141
12.0
290
     0
  0
SCALE
  5
5E
102
{ACAD_REACTORS
330
3D
102
}
330
3D
100
AcDbScale
 70
     0
300
1'-0" = 1'-0"
140
12.0
141
12.0
290
     0
  0
VISUALSTYLE
  5
2F
102
{ACAD_REACTORS
330
2A
102
}
330
2A
100
AcDbVisualStyle
  2
2dWireframe
 70
     4
 71
     0
 72
     2
 73
     0
 90
        0
 40
-0.6
 41
-30.0
 62
     5
 63
     7
421
 16777215
 74
     1
 91
        4
 64
     7
 65
   257
 75
     1
175
     1
 42
1.0
 92
        0
 66
   257
 43
1.0
 76
     1
 77
     6
 78
     2
 67
     7
 79
     5
170
     0
171
     0
290
     0
174
     0
 93
        1
 44
0.0
173
     0
291
     0
 45
0.0
1001
ACAD
1000
AcDbSavedByObjectVersion
1070
     0
  0
VISUALSTYLE
  5
31
102
{ACAD_REACTORS
330
2A
102
}
330
2A
100
AcDbVisualStyle
  2
3D Hidden
 70
     6
 71
     1
 72
     2
 73
     2
 90
        0
 40
-0.6
 41
-30.0
 62
     5
 63
     7
421
 16777215
 74
     2
 91
        2
 64
     7
 65
   257
 75
     2
175
     1
 42
40.0
 92
        0
 66
   257
 43
1.0
 76
     1
 77
     6
 78
     2
 67
     7
 79
     3
170
     0
171
     0
290
     0
174
     0
 93
        1
 44
0.0
173
     0
291
     0
 45
0.0
1001
ACAD
1000
AcDbSavedByObjectVersion
1070
     0
  0
VISUALSTYLE
  5
30
102
{ACAD_REACTORS
330
2A
102
}
330
2A
100
AcDbVisualStyle
  2
3dWireframe
 70
     5
 71
     0
 72
     2
 73
     0
 90
        0
 40
-0.6
 41
-30.0
 62
     5
 63
     7
421
 16777215
 74
     1
 91
        4
 64
     7
 65
   257
 75
     1
175
     1
 42
1.0
 92
        0
 66
   257
 43
1.0
 76
     1
 77
     6
 78
     2
 67
     7
 79
     5
170
     0
171
     0
290
     0
174
     0
 93
        1
 44
0.0
173
     0
291
     0
 45
0.0
1001
ACAD
1000
AcDbSavedByObjectVersion
1070
     0
  0
VISUALSTYLE
  5
32
102
{ACAD_REACTORS
330
2A
102
}
330
2A
100
AcDbVisualStyle
  2
Basic
 70
     7
 71
     1
 72
     0
 73
     1
 90
        0
 40
-0.6
 41
-30.0
 62
     5
 63
     7
421
 16777215
 74
     0
 91
        4
 64
     7
 65
   257
 75
     1
175
     1
 42
1.0
 92
        8
 66
     7
 43
1.0
 76
     1
 77
     6
 78
     2
 67
     7
 79
     5
170
     0
171
     0
290
     0
174
     0
 93
        1
 44
0.0
173
     0
291
     1
 45
0.0
1001
ACAD
1000
AcDbSavedByObjectVersion
1070
     0
  0
VISUALSTYLE
  5
36
102
{ACAD_REACTORS
330
2A
102
}
330
2A
100
AcDbVisualStyle
  2
Brighten
 70
    12
 71
     2
 72
     2
 73
     0
 90
        0
 40
-0.6
 41
-30.0
 62
     5
 63
     7
421
 16777215
 74
     1
 91
        4
 64
     7
 65
   257
 75
     1
175
     1
 42
1.0
 92
        8
 66
     7
 43
1.0
 76
     1
 77
     6
 78
     2
 67
     7
 79
     5
170
     0
171
     0
290
     0
174
     0
 93
        1
 44
50.0
173
     0
291
     1
 45
0.0
1001
ACAD
1000
AcDbSavedByObjectVersion
1070
     0
  0
VISUALSTYLE
  5
3A
102
{ACAD_REACTORS
330
2A
102
}
330
2A
100
AcDbVisualStyle
  2
ColorChange
 70
    16
 71
     2
 72
     2
 73
     3
 90
        0
 40
-0.6
 41
-30.0
 62
     5
 63
     8
421
  8421504
 74
     1
 91
        4
 64
     7
 65
   257
 75
     1
175
     1
 42
1.0
 92
        8
 66
     8
424
  8421504
 43
1.0
 76
     1
 77
     6
 78
     2
 67
     7
 79
     5
170
     0
171
     0
290
     0
174
     0
 93
        1
 44
0.0
173
     0
291
     1
 45
0.0
1001
ACAD
1000
AcDbSavedByObjectVersion
1070
     0
  0
VISUALSTYLE
  5
34
102
{ACAD_REACTORS
330
2A
102
}
330
2A
100
AcDbVisualStyle
  2
Conceptual
 70
     9
 71
     3
 72
     2
 73
     0
 90
        0
 40
-0.6
 41
-30.0
 62
     5
 63
     7
421
 16777215
 74
     2
 91
        2
 64
     7
 65
   257
 75
     1
175
     1
 42
40.0
 92
        8
 66
     7
 43
1.0
 76
     1
 77
     6
 78
     2
 67
     7
 79
     3
170
     0
171
     0
290
     0
174
     0
 93
        1
 44
0.0
173
     0
291
     0
 45
0.0
1001
ACAD
1000
AcDbSavedByObjectVersion
1070
     0
  0
VISUALSTYLE
  5
35
102
{ACAD_REACTORS
330
2A
102
}
330
2A
100
AcDbVisualStyle
  2
Dim
 70
    11
 71
     2
 72
     2
 73
     0
 90
        0
 40
-0.6
 41
-30.0
 62
     5
 63
     7
421
 16777215
 74
     1
 91
        4
 64
     7
 65
   257
 75
     1
175
     1
 42
1.0
 92
        8
 66
     7
 43
1.0
 76
     1
 77
     6
 78
     2
 67
     7
 79
     5
170
     0
171
     0
290
     0
174
     0
 93
        1
 44
-50.0
173
     0
291
     1
 45
0.0
1001
ACAD
1000
AcDbSavedByObjectVersion
1070
     0
  0
VISUALSTYLE
  5
39
102
{ACAD_REACTORS
330
2A
102
}
330
2A
100
AcDbVisualStyle
  2
Facepattern
 70
    15
 71
     2
 72
     2
 73
     0
 90
        0
 40
-0.6
 41
-30.0
 62
     5
 63
     7
421
 16777215
 74
     1
 91
        4
 64
     7
 65
   257
 75
     1
175
     1
 42
1.0
 92
        8
 66
     7
 43
1.0
 76
     1
 77
     6
 78
     2
 67
     7
 79
     5
170
     0
171
     0
290
     0
174
     0
 93
        1
 44
0.0
173
     0
291
     1
 45
0.0
1001
ACAD
1000
AcDbSavedByObjectVersion
1070
     0
  0
VISUALSTYLE
  5
2B
102
{ACAD_REACTORS
330
2A
102
}
330
2A
100
AcDbVisualStyle
  2
Flat
 70
     0
 71
     2
 72
     1
 73
     1
 90
        2
 40
-0.6
 41
30.0
 62
     5
 63
     7
421
 16777215
 74
     0
 91
        4
 64
     7
 65
   257
 75
     1
175
     1
 42
1.0
 92
        8
 66
     7
 43
1.0
 76
     1
 77
     6
 78
     2
 67
     7
 79
     5
170
     0
171
     0
290
     0
174
     0
 93
       13
 44
0.0
173
     0
291
     1
 45
0.0
1001
ACAD
1000
AcDbSavedByObjectVersion
1070
     0
  0
VISUALSTYLE
  5
2C
102
{ACAD_REACTORS
330
2A
102
}
330
2A
100
AcDbVisualStyle
  2
FlatWithEdges
 70
     1
 71
     2
 72
     1
 73
     1
 90
        2
 40
-0.6
 41
30.0
 62
     5
 63
     7
421
 16777215
 74
     1
 91
        4
 64
     7
 65
   257
 75
     1
175
     1
 42
1.0
 92
        0
 66
   257
 43
1.0
 76
     1
 77
     6
 78
     2
 67
     7
 79
     5
170
     0
171
     0
290
     0
174
     0
 93
       13
 44
0.0
173
     0
291
     1
 45
0.0
1001
ACAD
1000
AcDbSavedByObjectVersion
1070
     0
  0
VISUALSTYLE
  5
2D
102
{ACAD_REACTORS
330
2A
102
}
330
2A
100
AcDbVisualStyle
  2
Gouraud
 70
     2
 71
     2
 72
     2
 73
     1
 90
        2
 40
-0.6
 41
30.0
 62
     5
 63
     7
421
 16777215
 74
     0
 91
        4
 64
     7
 65
   257
 75
     1
175
     1
 42
1.0
 92
        0
 66
     7
 43
1.0
 76
     1
 77
     6
 78
     2
 67
     7
 79
     5
170
     0
171
     0
290
     0
174
     0
 93
       13
 44
0.0
173
     0
291
     1
 45
0.0
1001
ACAD
1000
AcDbSavedByObjectVersion
1070
     0
  0
VISUALSTYLE
  5
2E
102
{ACAD_REACTORS
330
2A
102
}
330
2A
100
AcDbVisualStyle
  2
GouraudWithEdges
 70
     3
 71
     2
 72
     2
 73
     1
 90
        2
 40
-0.6
 41
30.0
 62
     5
 63
     7
421
 16777215
 74
     1
 91
        4
 64
     7
 65
   257
 75
     1
175
     1
 42
1.0
 92
        0
 66
   257
 43
1.0
 76
     1
 77
     6
 78
     2
 67
     7
 79
     5
170
     0
171
     0
290
     0
174
     0
 93
       13
 44
0.0
173
     0
291
     1
 45
0.0
1001
ACAD
1000
AcDbSavedByObjectVersion
1070
     0
  0
VISUALSTYLE
  5
38
102
{ACAD_REACTORS
330
2A
102
}
330
2A
100
AcDbVisualStyle
  2
Linepattern
 70
    14
 71
     2
 72
     2
 73
     0
 90
        0
 40
-0.6
 41
-30.0
 62
     5
 63
     7
421
 16777215
 74
     1
 91
        4
 64
     7
 65
   257
 75
     7
175
     7
 42
1.0
 92
        8
 66
     7
 43
1.0
 76
     1
 77
     6
 78
     2
 67
     7
 79
     5
170
     0
171
     0
290
     0
174
     0
 93
        1
 44
0.0
173
     0
291
     1
 45
0.0
1001
ACAD
1000
AcDbSavedByObjectVersion
1070
     0
  0
VISUALSTYLE
  5
33
102
{ACAD_REACTORS
330
2A
102
}
330
2A
100
AcDbVisualStyle
  2
Realistic
 70
     8
 71
     2
 72
     2
 73
     0
 90
        0
 40
-0.6
 41
-30.0
 62
     5
 63
     7
421
 16777215
 74
     1
 91
        0
 64
     7
 65
   257
 75
     1
175
     1
 42
1.0
 92
        8
 66
     8
424
  7895160
 43
1.0
 76
     1
 77
     6
 78
     2
 67
     7
 79
     5
170
     0
171
     0
290
     0
174
     0
 93
       13
 44
0.0
173
     0
291
     0
 45
0.0
1001
ACAD
1000
AcDbSavedByObjectVersion
1070
     0
  0
VISUALSTYLE
  5
37
102
{ACAD_REACTORS
330
2A
102
}
330
2A
100
AcDbVisualStyle
  2
Thicken
 70
    13
 71
     2
 72
     2
 73
     0
 90
        0
 40
-0.6
 41
-30.0
 62
     5
 63
     7
421
 16777215
 74
     1
 91
        4
 64
     7
 65
   257
 75
     1
175
     1
 42
1.0
 92
       12
 66
     7
 43
1.0
 76
     1
 77
     6
 78
     2
 67
     7
 79
     5
170
     0
171
     0
290
     0
174
     0
 93
        1
 44
0.0
173
     0
291
     1
 45
0.0
1001
ACAD
1000
AcDbSavedByObjectVersion
1070
     0
  0
DICTIONARYVAR
  5
1A3
102
{ACAD_REACTORS
330
1A2
102
}
330
1A2
100
DictionaryVariables
280
     0
  1
1:1
  0
ENDSEC
  0
EOF
